  0
SECTION
  2
HEADER
  9
$ACADVER
  1
AC1021
  9
$ACADMAINTVER
 70
    25
  9
$DWGCODEPAGE
  3
ANSI_1252
  9
$INSBASE
 10
0.0
 20
0.0
 30
0.0
  9
$EXTMIN
 10
0.0
 20
0.0
 30
0.0
  9
$EXTMAX
 10
215.9
 20
279.4
 30
0.0
  9
$LIMMIN
 10
0.0
 20
0.0
  9
$LIMMAX
 10
215.9
 20
279.4
  9
$ORTHOMODE
 70
     0
  9
$REGENMODE
 70
     1
  9
$FILLMODE
 70
     1
  9
$QTEXTMODE
 70
     0
  9
$MIRRTEXT
 70
     1
  9
$LTSCALE
 40
1.0
  9
$ATTMODE
 70
     1
  9
$TEXTSIZE
 40
3.5
  9
$TRACEWID
 40
1.0
  9
$TEXTSTYLE
  7
Standard
  9
$CLAYER
  8
0
  9
$CELTYPE
  6
ByLayer
  9
$CECOLOR
 62
   256
  9
$CELTSCALE
 40
1.0
  9
$DISPSILH
 70
     0
  9
$DIMSCALE
 40
1.0
  9
$DIMASZ
 40
2.5
  9
$DIMEXO
 40
0.625
  9
$DIMDLI
 40
3.75
  9
$DIMRND
 40
0.0
  9
$DIMDLE
 40
0.0
  9
$DIMEXE
 40
1.25
  9
$DIMTP
 40
0.0
  9
$DIMTM
 40
0.0
  9
$DIMTXT
 40
2.5
  9
$DIMCEN
 40
2.5
  9
$DIMTSZ
 40
0.0
  9
$DIMTOL
 70
     0
  9
$DIMLIM
 70
     0
  9
$DIMTIH
 70
     0
  9
$DIMTOH
 70
     0
  9
$DIMSE1
 70
     0
  9
$DIMSE2
 70
     0
  9
$DIMTAD
 70
     1
  9
$DIMZIN
 70
     8
  9
$DIMBLK
  1

  9
$DIMASO
 70
     1
  9
$DIMSHO
 70
     1
  9
$DIMPOST
  1

  9
$DIMAPOST
  1

  9
$DIMALT
 70
     0
  9
$DIMALTD
 70
     3
  9
$DIMALTF
 40
0.0393700787
  9
$DIMLFAC
 40
1.0
  9
$DIMTOFL
 70
     1
  9
$DIMTVP
 40
0.0
  9
$DIMTIX
 70
     0
  9
$DIMSOXD
 70
     0
  9
$DIMSAH
 70
     0
  9
$DIMBLK1
  1

  9
$DIMBLK2
  1

  9
$DIMSTYLE
  2
ISO-25
  9
$DIMCLRD
 70
     0
  9
$DIMCLRE
 70
     0
  9
$DIMCLRT
 70
     0
  9
$DIMTFAC
 40
1.0
  9
$DIMGAP
 40
0.625
  9
$DIMJUST
 70
     0
  9
$DIMSD1
 70
     0
  9
$DIMSD2
 70
     0
  9
$DIMTOLJ
 70
     0
  9
$DIMTZIN
 70
     8
  9
$DIMALTZ
 70
     0
  9
$DIMALTTZ
 70
     0
  9
$DIMUPT
 70
     0
  9
$DIMDEC
 70
     2
  9
$DIMTDEC
 70
     2
  9
$DIMALTU
 70
     2
  9
$DIMALTTD
 70
     3
  9
$DIMTXSTY
  7
Standard
  9
$DIMAUNIT
 70
     0
  9
$DIMADEC
 70
     0
  9
$DIMALTRND
 40
0.0
  9
$DIMAZIN
 70
     0
  9
$DIMDSEP
 70
    44
  9
$DIMATFIT
 70
     3
  9
$DIMFRAC
 70
     0
  9
$DIMLDRBLK
  1

  9
$DIMLUNIT
 70
     2
  9
$DIMLWD
 70
    -2
  9
$DIMLWE
 70
    -2
  9
$DIMTMOVE
 70
     0
  9
$DIMFXL
 40
1.0
  9
$DIMFXLON
 70
     0
  9
$DIMJOGANG
 40
0.7853981634
  9
$DIMTFILL
 70
     0
  9
$DIMTFILLCLR
 70
     0
  9
$DIMARCSYM
 70
     0
  9
$DIMLTYPE
  6

  9
$DIMLTEX1
  6

  9
$DIMLTEX2
  6

  9
$LUNITS
 70
     2
  9
$LUPREC
 70
     4
  9
$SKETCHINC
 40
1.0
  9
$FILLETRAD
 40
10.0
  9
$AUNITS
 70
     0
  9
$AUPREC
 70
     0
  9
$MENU
  1
.
  9
$ELEVATION
 40
0.0
  9
$PELEVATION
 40
0.0
  9
$THICKNESS
 40
0.0
  9
$LIMCHECK
 70
     0
  9
$CHAMFERA
 40
0.0
  9
$CHAMFERB
 40
0.0
  9
$CHAMFERC
 40
0.0
  9
$CHAMFERD
 40
0.0
  9
$SKPOLY
 70
     0
  9
$TDCREATE
 40
2457184.42691015
  9
$TDUCREATE
 40
2457184.343576817
  9
$TDUPDATE
 40
2457184.426915752
  9
$TDUUPDATE
 40
2457184.343582419
  9
$TDINDWG
 40
0.0000000116
  9
$TDUSRTIMER
 40
0.0000000116
  9
$USRTIMER
 70
     1
  9
$ANGBASE
 50
0.0
  9
$ANGDIR
 70
     0
  9
$PDMODE
 70
     0
  9
$PDSIZE
 40
0.0
  9
$PLINEWID
 40
0.0
  9
$SPLFRAME
 70
     0
  9
$SPLINETYPE
 70
     6
  9
$SPLINESEGS
 70
     8
  9
$HANDSEED
  5
450
  9
$SURFTAB1
 70
     6
  9
$SURFTAB2
 70
     6
  9
$SURFTYPE
 70
     6
  9
$SURFU
 70
     6
  9
$SURFV
 70
     6
  9
$UCSBASE
  2

  9
$UCSNAME
  2

  9
$UCSORG
 10
0.0
 20
0.0
 30
0.0
  9
$UCSXDIR
 10
1.0
 20
0.0
 30
0.0
  9
$UCSYDIR
 10
0.0
 20
1.0
 30
0.0
  9
$UCSORTHOREF
  2

  9
$UCSORTHOVIEW
 70
     0
  9
$UCSORGTOP
 10
0.0
 20
0.0
 30
0.0
  9
$UCSORGBOTTOM
 10
0.0
 20
0.0
 30
0.0
  9
$UCSORGLEFT
 10
0.0
 20
0.0
 30
0.0
  9
$UCSORGRIGHT
 10
0.0
 20
0.0
 30
0.0
  9
$UCSORGFRONT
 10
0.0
 20
0.0
 30
0.0
  9
$UCSORGBACK
 10
0.0
 20
0.0
 30
0.0
  9
$PUCSBASE
  2

  9
$PUCSNAME
  2

  9
$PUCSORG
 10
0.0
 20
0.0
 30
0.0
  9
$PUCSXDIR
 10
1.0
 20
0.0
 30
0.0
  9
$PUCSYDIR
 10
0.0
 20
1.0
 30
0.0
  9
$PUCSORTHOREF
  2

  9
$PUCSORTHOVIEW
 70
     0
  9
$PUCSORGTOP
 10
0.0
 20
0.0
 30
0.0
  9
$PUCSORGBOTTOM
 10
0.0
 20
0.0
 30
0.0
  9
$PUCSORGLEFT
 10
0.0
 20
0.0
 30
0.0
  9
$PUCSORGRIGHT
 10
0.0
 20
0.0
 30
0.0
  9
$PUCSORGFRONT
 10
0.0
 20
0.0
 30
0.0
  9
$PUCSORGBACK
 10
0.0
 20
0.0
 30
0.0
  9
$USERI1
 70
     0
  9
$USERI2
 70
     0
  9
$USERI3
 70
     0
  9
$USERI4
 70
     0
  9
$USERI5
 70
     0
  9
$USERR1
 40
0.0
  9
$USERR2
 40
0.0
  9
$USERR3
 40
0.0
  9
$USERR4
 40
0.0
  9
$USERR5
 40
0.0
  9
$WORLDVIEW
 70
     1
  9
$SHADEDGE
 70
     3
  9
$SHADEDIF
 70
    70
  9
$TILEMODE
 70
     1
  9
$MAXACTVP
 70
    64
  9
$PINSBASE
 10
0.0
 20
0.0
 30
0.0
  9
$PLIMCHECK
 70
     0
  9
$PEXTMIN
 10
0.0
 20
0.0
 30
0.0
  9
$PEXTMAX
 10
215.9
 20
279.4
 30
0.0
  9
$PLIMMIN
 10
0.0
 20
0.0
  9
$PLIMMAX
 10
215.9
 20
279.4
  9
$UNITMODE
 70
     0
  9
$VISRETAIN
 70
     1
  9
$PLINEGEN
 70
     0
  9
$PSLTSCALE
 70
     1
  9
$TREEDEPTH
 70
  3020
  9
$CMLSTYLE
  2
Standard
  9
$CMLJUST
 70
     0
  9
$CMLSCALE
 40
20.0
  9
$PROXYGRAPHICS
 70
     1
  9
$MEASUREMENT
 70
     1
  9
$CELWEIGHT
370
    -1
  9
$ENDCAPS
280
     0
  9
$JOINSTYLE
280
     0
  9
$LWDISPLAY
290
     0
  9
$INSUNITS
 70
     4
  9
$HYPERLINKBASE
  1

  9
$STYLESHEET
  1

  9
$XEDIT
290
     1
  9
$CEPSNTYPE
380
     0
  9
$PSTYLEMODE
290
     1
  9
$FINGERPRINTGUID
  2
{C7999375-2BD4-4E41-B422-A81C2D9E917B}
  9
$VERSIONGUID
  2
{FAEB1C32-E019-11D5-929B-00C0DF256EC4}
  9
$EXTNAMES
290
     1
  9
$PSVPSCALE
 40
0.0
  9
$OLESTARTUP
290
     0
  9
$SORTENTS
280
   127
  9
$INDEXCTL
280
     0
  9
$HIDETEXT
280
     1
  9
$XCLIPFRAME
290
     0
  9
$HALOGAP
280
     0
  9
$OBSCOLOR
 70
   257
  9
$OBSLTYPE
280
     0
  9
$INTERSECTIONDISPLAY
280
     0
  9
$INTERSECTIONCOLOR
 70
   257
  9
$DIMASSOC
280
     2
  9
$PROJECTNAME
  1

  9
$CAMERADISPLAY
290
     0
  9
$LENSLENGTH
 40
50.0
  9
$CAMERAHEIGHT
 40
0.0
  9
$STEPSPERSEC
 40
2.0
  9
$STEPSIZE
 40
6.0
  9
$3DDWFPREC
 40
2.0
  9
$PSOLWIDTH
 40
5.0
  9
$PSOLHEIGHT
 40
80.0
  9
$LOFTANG1
 40
1.5707963268
  9
$LOFTANG2
 40
1.5707963268
  9
$LOFTMAG1
 40
0.0
  9
$LOFTMAG2
 40
0.0
  9
$LOFTPARAM
 70
     7
  9
$LOFTNORMALS
280
     1
  9
$LATITUDE
 40
37.795
  9
$LONGITUDE
 40
-122.394
  9
$NORTHDIRECTION
 40
0.0
  9
$TIMEZONE
 70
 -8000
  9
$LIGHTGLYPHDISPLAY
280
     1
  9
$TILEMODELIGHTSYNCH
280
     1
  9
$CMATERIAL
347
44
  9
$SOLIDHIST
280
     0
  9
$SHOWHIST
280
     1
  9
$DWFFRAME
280
     2
  9
$DGNFRAME
280
     2
  9
$REALWORLDSCALE
290
     1
  9
$INTERFERECOLOR
 62
   256
  9
$CSHADOW
280
     0
  9
$SHADOWPLANELOCATION
 40
0.0
  0
ENDSEC
  0
SECTION
  2
CLASSES
  0
CLASS
  1
ACDBDICTIONARYWDFLT
  2
AcDbDictionaryWithDefault
  3
ObjectDBX Classes
 90
        0
 91
        4
280
     0
281
     0
  0
CLASS
  1
VISUALSTYLE
  2
AcDbVisualStyle
  3
ObjectDBX Classes
 90
     4095
 91
        4
280
     0
281
     0
  0
CLASS
  1
MATERIAL
  2
AcDbMaterial
  3
ObjectDBX Classes
 90
     1153
 91
        4
280
     0
281
     0
  0
CLASS
  1
SCALE
  2
AcDbScale
  3
ObjectDBX Classes
 90
     1153
 91
        4
280
     0
281
     0
  0
CLASS
  1
TABLESTYLE
  2
AcDbTableStyle
  3
ObjectDBX Classes
 90
     4095
 91
        4
280
     0
281
     0
  0
CLASS
  1
MLEADERSTYLE
  2
AcDbMLeaderStyle
  3
ACDB_MLEADERSTYLE_CLASS
 90
     4095
 91
        4
280
     0
281
     0
  0
CLASS
  1
SUN
  2
AcDbSun
  3
SCENEOE
 90
     1153
 91
        4
280
     0
281
     0
  0
CLASS
  1
DICTIONARYVAR
  2
AcDbDictionaryVar
  3
ObjectDBX Classes
 90
        0
 91
        4
280
     0
281
     0
  0
CLASS
  1
CELLSTYLEMAP
  2
AcDbCellStyleMap
  3
ObjectDBX Classes
 90
     1152
 91
        4
280
     0
281
     0
  0
ENDSEC
  0
SECTION
  2
TABLES
  0
TABLE
  2
VPORT
  5
8
330
0
100
AcDbSymbolTable
 70
     1
  0
VPORT
  5
29
330
8
100
AcDbSymbolTableRecord
100
AcDbViewportTableRecord
  2
*Active
 70
     0
 10
0.0
 20
0.0
 11
1.0
 21
1.0
 12
344.1869158879
 22
148.5
 13
0.0
 23
0.0
 14
10.0
 24
10.0
 15
10.0
 25
10.0
 16
0.0
 26
0.0
 36
1.0
 17
0.0
 27
0.0
 37
0.0
 40
297.0
 41
1.9729729729
 42
50.0
 43
0.0
 44
0.0
 50
0.0
 51
0.0
 71
     0
 72
   100
 73
     1
 74
     3
 75
     0
 76
     0
 77
     0
 78
     0
281
     0
 65
     1
110
0.0
120
0.0
130
0.0
111
1.0
121
0.0
131
0.0
112
0.0
122
1.0
132
0.0
 79
     0
146
0.0
 60
     3
 61
     5
292
     1
282
     1
141
0.0
142
0.0
 63
   250
361
6D
  0
ENDTAB
  0
TABLE
  2
LTYPE
  5
5
330
0
100
AcDbSymbolTable
 70
     2
  0
LTYPE
  5
14
330
5
100
AcDbSymbolTableRecord
100
AcDbLinetypeTableRecord
  2
ByBlock
 70
     0
  3

 72
    65
 73
     0
 40
0.0
  0
LTYPE
  5
15
330
5
100
AcDbSymbolTableRecord
100
AcDbLinetypeTableRecord
  2
ByLayer
 70
     0
  3

 72
    65
 73
     0
 40
0.0
  0
LTYPE
  5
16
330
5
100
AcDbSymbolTableRecord
100
AcDbLinetypeTableRecord
  2
Continuous
 70
     0
  3
Solid line
 72
    65
 73
     0
 40
0.0
  0
LTYPE
  5
CD
330
5
100
AcDbSymbolTableRecord
100
AcDbLinetypeTableRecord
  2
HIDDEN2
 70
     0
  3
Hidden (.5x) _ _ _ _ _ _ _ _ _ _ _ _ _ _ _ _ _ 
 72
    65
 73
     2
 40
4.7625
 49
3.175
 74
     4
 75
     0
340
0
 46
0.0
 50
0.0
 44
0.0
 45
0.0
 49
-1.5875
 74
     4
 75
     0
340
0
 46
0.0
 50
0.0
 44
0.0
 45
0.0
  0
ENDTAB
  0
TABLE
  2
LAYER
  5
2
330
0
100
AcDbSymbolTable
 70
    10
  0
LAYER
  5
10
330
2
100
AcDbSymbolTableRecord
100
AcDbLayerTableRecord
  2
0
 70
     0
 62
     7
  6
Continuous
370
    -3
390
F
347
46
  0
LAYER
  5
6E
330
2
100
AcDbSymbolTableRecord
100
AcDbLayerTableRecord
  2
Standard
 70
     0
 62
     7
  6
Continuous
370
    -3
390
F
347
46
  0
LAYER
  5
72
330
2
100
AcDbSymbolTableRecord
100
AcDbLayerTableRecord
  2
AP_563_708MM
 70
     0
 62
     7
  6
Continuous
370
    -3
390
F
347
46
  0
LAYER
  5
AF
330
2
100
AcDbSymbolTableRecord
100
AcDbLayerTableRecord
  2
AF_079_EINBAU
 70
     0
 62
     7
  6
Continuous
370
    -3
390
F
347
46
  0
LAYER
  5
B5
330
2
100
AcDbSymbolTableRecord
100
AcDbLayerTableRecord
  2
AF_080
 70
     0
 62
     7
  6
Continuous
370
    -3
390
F
347
46
  0
LAYER
  5
BA
330
2
100
AcDbSymbolTableRecord
100
AcDbLayerTableRecord
  2
AW_126
 70
     0
 62
     7
  6
Continuous
370
    -3
390
F
347
46
  0
LAYER
  5
CC
330
2
100
AcDbSymbolTableRecord
100
AcDbLayerTableRecord
  2
AP_562_M
 70
     0
 62
     7
  6
Continuous
370
    -3
390
F
347
46
  0
LAYER
  5
FE
330
2
100
AcDbSymbolTableRecord
100
AcDbLayerTableRecord
  2
AJ_359
 70
     0
 62
     7
  6
Continuous
370
    -3
390
F
347
46
  0
LAYER
  5
113
330
2
100
AcDbSymbolTableRecord
100
AcDbLayerTableRecord
  2
SPAXSCHRAUBE_3X2
 70
     0
 62
     7
  6
Continuous
370
    -3
390
F
347
46
  0
LAYER
  5
120
330
2
100
AcDbSymbolTableRecord
100
AcDbLayerTableRecord
  2
AP_592_703MM
 70
     0
 62
     7
  6
Continuous
370
    -3
390
F
347
46
  0
ENDTAB
  0
TABLE
  2
STYLE
  5
3
330
0
100
AcDbSymbolTable
 70
     2
  0
STYLE
  5
11
330
3
100
AcDbSymbolTableRecord
100
AcDbTextStyleTableRecord
  2
Standard
 70
     0
 40
0.0
 41
1.0
 50
0.0
 71
     0
 42
3.5
  3
txt
  4

  0
STYLE
  5
172
330
3
100
AcDbSymbolTableRecord
100
AcDbTextStyleTableRecord
  2
SEACAD_Arial
 70
     0
 40
0.0
 41
1.0
 50
0.0
 71
     0
 42
3.5
  3
arial.ttf
  4

1001
ACAD
1000
Arial
1071
        0
  0
ENDTAB
  0
TABLE
  2
VIEW
  5
6
330
0
100
AcDbSymbolTable
 70
     0
  0
ENDTAB
  0
TABLE
  2
UCS
  5
7
330
0
100
AcDbSymbolTable
 70
     0
  0
ENDTAB
  0
TABLE
  2
APPID
  5
9
330
0
100
AcDbSymbolTable
 70
     2
  0
APPID
  5
12
330
9
100
AcDbSymbolTableRecord
100
AcDbRegAppTableRecord
  2
ACAD
 70
     0
  0
APPID
  5
448
330
9
100
AcDbSymbolTableRecord
100
AcDbRegAppTableRecord
  2
ACAD_MLEADERVER
 70
     0
  0
ENDTAB
  0
TABLE
  2
DIMSTYLE
  5
A
330
0
100
AcDbSymbolTable
 70
     3
100
AcDbDimStyleTable
  0
DIMSTYLE
105
27
330
A
100
AcDbSymbolTableRecord
100
AcDbDimStyleTableRecord
  2
ISO-25
 70
     0
 41
2.5
 42
0.625
 43
3.75
 44
1.25
 73
     0
 74
     0
 77
     1
 78
     8
140
2.5
141
2.5
143
0.0393700787
147
0.625
171
     3
172
     1
178
     0
271
     2
272
     2
274
     3
278
    44
283
     0
284
     8
340
11
  0
DIMSTYLE
105
15F
330
A
100
AcDbSymbolTableRecord
100
AcDbDimStyleTableRecord
  2
Standard
 70
     0
178
     0
340
11
  0
DIMSTYLE
105
173
102
{ACAD_REACTORS
330
174
330
17E
330
24D
330
257
102
}
330
A
100
AcDbSymbolTableRecord
100
AcDbDimStyleTableRecord
  2
E-Katalog
 70
     0
 41
3.75
 42
0.75
 44
1.25
 73
     0
 74
     0
 77
     1
 78
     8
140
2.5
141
1.25
147
1.25
172
     1
173
     1
178
     0
271
     2
272
     2
278
    44
284
     8
340
172
343
16C
344
16C
  0
ENDTAB
  0
TABLE
  2
BLOCK_RECORD
  5
1
330
0
100
AcDbSymbolTable
 70
    12
  0
BLOCK_RECORD
  5
1F
330
1
100
AcDbSymbolTableRecord
100
AcDbBlockTableRecord
  2
*Model_Space
340
22
 70
     0
280
     1
281
     0
  0
BLOCK_RECORD
  5
1B
330
1
100
AcDbSymbolTableRecord
100
AcDbBlockTableRecord
  2
*Paper_Space
340
1E
 70
     0
280
     1
281
     0
  0
BLOCK_RECORD
  5
70
330
1
100
AcDbSymbolTableRecord
100
AcDbBlockTableRecord
  2
SE
340
0
102
{BLKREFS
331
71
102
}
 70
     0
280
     1
281
     0
  0
BLOCK_RECORD
  5
160
330
1
100
AcDbSymbolTableRecord
100
AcDbBlockTableRecord
  2
_OBLIQUE
340
0
 70
     0
280
     1
281
     0
  0
BLOCK_RECORD
  5
164
330
1
100
AcDbSymbolTableRecord
100
AcDbBlockTableRecord
  2
_DOT
340
0
 70
     0
280
     1
281
     0
  0
BLOCK_RECORD
  5
16C
330
1
100
AcDbSymbolTableRecord
100
AcDbBlockTableRecord
  2
_SE_OPEN
340
0
 70
     0
280
     1
281
     0
  0
BLOCK_RECORD
  5
175
330
1
100
AcDbSymbolTableRecord
100
AcDbBlockTableRecord
  2
DMBLK17
340
0
 70
     0
280
     1
281
     0
  0
BLOCK_RECORD
  5
17F
330
1
100
AcDbSymbolTableRecord
100
AcDbBlockTableRecord
  2
DMBLK18
340
0
 70
     0
280
     1
281
     0
  0
BLOCK_RECORD
  5
188
330
1
100
AcDbSymbolTableRecord
100
AcDbBlockTableRecord
  2
SE1
340
0
102
{BLKREFS
331
189
102
}
 70
     0
280
     1
281
     0
  0
BLOCK_RECORD
  5
24E
330
1
100
AcDbSymbolTableRecord
100
AcDbBlockTableRecord
  2
DMBLK19
340
0
 70
     0
280
     1
281
     0
  0
BLOCK_RECORD
  5
258
330
1
100
AcDbSymbolTableRecord
100
AcDbBlockTableRecord
  2
DMBLK20
340
0
 70
     0
280
     1
281
     0
  0
BLOCK_RECORD
  5
261
330
1
100
AcDbSymbolTableRecord
100
AcDbBlockTableRecord
  2
SE2
340
0
102
{BLKREFS
331
262
102
}
 70
     0
280
     1
281
     0
  0
BLOCK_RECORD
  5
326
330
1
100
AcDbSymbolTableRecord
100
AcDbBlockTableRecord
  2
SE3
340
0
102
{BLKREFS
331
327
102
}
 70
     0
280
     1
281
     0
  0
ENDTAB
  0
ENDSEC
  0
SECTION
  2
BLOCKS
  0
BLOCK
  5
20
330
1F
100
AcDbEntity
  8
0
100
AcDbBlockBegin
  2
*Model_Space
 70
     0
 10
0.0
 20
0.0
 30
0.0
  3
*Model_Space
  1
*Model_Space
  0
ENDBLK
  5
21
330
1F
100
AcDbEntity
  8
0
100
AcDbBlockEnd
  0
BLOCK
  5
1C
330
1B
100
AcDbEntity
 67
     1
  8
0
100
AcDbBlockBegin
  2
*Paper_Space
 70
     0
 10
0.0
 20
0.0
 30
0.0
  3
*Paper_Space
  1
*Paper_Space
  0
ENDBLK
  5
1D
330
1B
100
AcDbEntity
 67
     1
  8
0
100
AcDbBlockEnd
  0
BLOCK
  5
15D
330
70
100
AcDbEntity
  8
0
100
AcDbBlockBegin
  2
SE
 70
     0
 10
0.0
 20
0.0
 30
0.0
  3
SE
  1
SE
  0
ARC
  5
73
330
70
100
AcDbEntity
  8
AP_563_708MM
  6
Continuous
 62
     7
100
AcDbCircle
 10
64.4606099283
 20
201.9285637642
 30
0.0
 40
0.5000000000000004
100
AcDbArc
 50
90.0
 51
180.0
  0
LINE
  5
74
330
70
100
AcDbEntity
  8
AP_563_708MM
  6
Continuous
 62
     7
100
AcDbLine
 10
64.5606099283
 20
202.4285637642
 30
0.0
 11
64.4606099283
 21
202.4285637642
 31
0.0
  0
ARC
  5
75
330
70
100
AcDbEntity
  8
AP_563_708MM
  6
Continuous
 62
     7
100
AcDbCircle
 10
64.5606099283
 20
202.2285637642
 30
0.0
 40
0.1999999999999999
100
AcDbArc
 50
0.0
 51
90.0
  0
LINE
  5
76
330
70
100
AcDbEntity
  8
AP_563_708MM
  6
Continuous
 62
     7
100
AcDbLine
 10
64.7606099283
 20
201.3090533563
 30
0.0
 11
64.7606099283
 21
202.2285637642
 31
0.0
  0
LINE
  5
77
330
70
100
AcDbEntity
  8
AP_563_708MM
  6
Continuous
 62
     7
100
AcDbLine
 10
64.5191885721
 20
201.0676320001
 30
0.0
 11
64.7606099283
 21
201.3090533563
 31
0.0
  0
ARC
  5
78
330
70
100
AcDbEntity
  8
AP_563_708MM
  6
Continuous
 62
     7
100
AcDbCircle
 10
64.6606099283
 20
200.9262106439
 30
0.0
 40
0.2000000000000001
100
AcDbArc
 50
135.0
 51
225.0
  0
LINE
  5
79
330
70
100
AcDbEntity
  8
AP_563_708MM
  6
Continuous
 62
     7
100
AcDbLine
 10
64.7606099283
 20
200.5433679314
 30
0.0
 11
64.5191885721
 21
200.7847892876
 31
0.0
  0
LINE
  5
7A
330
70
100
AcDbEntity
  8
AP_563_708MM
  6
Continuous
 62
     7
100
AcDbLine
 10
64.7606099283
 20
200.2285636376
 30
0.0
 11
64.7606099283
 21
200.5433679314
 31
0.0
  0
ARC
  5
7B
330
70
100
AcDbEntity
  8
AP_563_708MM
  6
Continuous
 62
     7
100
AcDbCircle
 10
65.9106099283
 20
200.2285636376
 30
0.0
 40
1.150000000000184
100
AcDbArc
 50
180.0
 51
0.0
  0
LINE
  5
7C
330
70
100
AcDbEntity
  8
AP_563_708MM
  6
Continuous
 62
     7
100
AcDbLine
 10
62.4606099283
 20
194.5261132906
 30
0.0
 11
69.3606099283
 21
194.5261132906
 31
0.0
  0
ARC
  5
7D
330
70
100
AcDbEntity
  8
AP_563_708MM
  6
Continuous
 62
     7
100
AcDbCircle
 10
62.4606099283
 20
195.0261132906
 30
0.0
 40
0.5000000000000004
100
AcDbArc
 50
181.2990872952
 51
270.0
  0
LINE
  5
7E
330
70
100
AcDbEntity
  8
AP_563_708MM
  6
Continuous
 62
     7
100
AcDbLine
 10
62.3596111511
 20
196.1751146141
 30
0.0
 11
61.960738443
 21
195.7762419061
 31
0.0
  0
ARC
  5
7F
330
70
100
AcDbEntity
  8
AP_563_708MM
  6
Continuous
 62
     7
100
AcDbCircle
 10
62.7606099283
 20
196.0761133914
 30
0.0
 40
0.200000000000001
100
AcDbArc
 50
9.0952669411
 51
29.6701534813
  0
LINE
  5
80
330
70
100
AcDbEntity
  8
AP_563_708MM
  6
Continuous
 62
     7
100
AcDbLine
 10
62.9606099283
 20
195.5261133391
 30
0.0
 11
62.9606099283
 21
196.0251842224
 31
0.0
  0
LINE
  5
81
330
70
100
AcDbEntity
  8
AP_563_708MM
  6
Continuous
 62
     7
100
AcDbLine
 10
65.3106099283
 20
195.5261135716
 30
0.0
 11
62.9606099283
 21
195.5261133391
 31
0.0
  0
LINE
  5
82
330
70
100
AcDbEntity
  8
AP_563_708MM
  6
Continuous
 62
     7
100
AcDbLine
 10
65.3106099283
 20
198.1643217537
 30
0.0
 11
65.3106099283
 21
195.5261135716
 31
0.0
  0
ARC
  5
83
330
70
100
AcDbEntity
  8
AP_563_708MM
  6
Continuous
 62
     7
100
AcDbCircle
 10
65.9054959179
 20
200.2303833838
 30
0.0
 40
2.149999999999999
100
AcDbArc
 50
199.1184497513
 51
253.9371784822
  0
LINE
  5
84
330
70
100
AcDbEntity
  8
AP_563_708MM
  6
Continuous
 62
     7
100
AcDbLine
 10
62.9606099283
 20
199.5262106615
 30
0.0
 11
63.8740824013
 21
199.5262107312
 31
0.0
  0
LINE
  5
85
330
70
100
AcDbEntity
  8
AP_563_708MM
  6
Continuous
 62
     7
100
AcDbLine
 10
62.9606099283
 20
199.0264098032
 30
0.0
 11
62.9606099283
 21
199.5262106615
 31
0.0
  0
ARC
  5
86
330
70
100
AcDbEntity
  8
AP_563_708MM
  6
Continuous
 62
     7
100
AcDbCircle
 10
62.7606099283
 20
198.9762106954
 30
0.0
 40
0.2000000000000005
100
AcDbArc
 50
330.0888508288
 51
0.0
  0
LINE
  5
87
330
70
100
AcDbEntity
  8
AP_563_708MM
  6
Continuous
 62
     7
100
AcDbLine
 10
61.9607384425
 20
199.2760821813
 30
0.0
 11
62.3603412122
 21
198.8764794115
 31
0.0
  0
LINE
  5
88
330
70
100
AcDbEntity
  8
AP_563_708MM
  6
Continuous
 62
     7
100
AcDbLine
 10
62.9606099283
 20
200.5262106439
 30
0.0
 11
62.9606099283
 21
203.2285636376
 31
0.0
  0
LINE
  5
89
330
70
100
AcDbEntity
  8
AP_563_708MM
  6
Continuous
 62
     7
100
AcDbLine
 10
63.9606099283
 20
200.5262106439
 30
0.0
 11
62.9606099283
 21
200.5262106439
 31
0.0
  0
LINE
  5
8A
330
70
100
AcDbEntity
  8
AP_563_708MM
  6
Continuous
 62
     7
100
AcDbLine
 10
63.9606099283
 20
201.9285637642
 30
0.0
 11
63.9606099283
 21
200.5262106439
 31
0.0
  0
LINE
  5
8B
330
70
100
AcDbEntity
  8
AP_563_708MM
  6
Continuous
 62
     7
100
AcDbLine
 10
68.8606099283
 20
200.5262106439
 30
0.0
 11
67.8606099283
 21
200.5262106439
 31
0.0
  0
LINE
  5
8C
330
70
100
AcDbEntity
  8
AP_563_708MM
  6
Continuous
 62
     7
100
AcDbLine
 10
67.8606099283
 20
200.5262106439
 30
0.0
 11
67.8606099283
 21
201.9285637642
 31
0.0
  0
ARC
  5
8D
330
70
100
AcDbEntity
  8
AP_563_708MM
  6
Continuous
 62
     7
100
AcDbCircle
 10
67.3606099283
 20
201.9285637642
 30
0.0
 40
0.5
100
AcDbArc
 50
0.0
 51
90.0
  0
LINE
  5
8E
330
70
100
AcDbEntity
  8
AP_563_708MM
  6
Continuous
 62
     7
100
AcDbLine
 10
67.3606099283
 20
202.4285637642
 30
0.0
 11
67.2606099283
 21
202.4285637642
 31
0.0
  0
ARC
  5
8F
330
70
100
AcDbEntity
  8
AP_563_708MM
  6
Continuous
 62
     7
100
AcDbCircle
 10
67.2606099283
 20
202.2285637642
 30
0.0
 40
0.2000000000000001
100
AcDbArc
 50
90.0
 51
180.0
  0
LINE
  5
90
330
70
100
AcDbEntity
  8
AP_563_708MM
  6
Continuous
 62
     7
100
AcDbLine
 10
67.0606099283
 20
202.2285637642
 30
0.0
 11
67.0606099283
 21
201.3090533563
 31
0.0
  0
LINE
  5
91
330
70
100
AcDbEntity
  8
AP_563_708MM
  6
Continuous
 62
     7
100
AcDbLine
 10
67.0606099283
 20
201.3090533563
 30
0.0
 11
67.3020312846
 21
201.0676320001
 31
0.0
  0
ARC
  5
92
330
70
100
AcDbEntity
  8
AP_563_708MM
  6
Continuous
 62
     7
100
AcDbCircle
 10
67.1606099283
 20
200.9262106439
 30
0.0
 40
0.2000000000000003
100
AcDbArc
 50
315.0
 51
45.0
  0
LINE
  5
93
330
70
100
AcDbEntity
  8
AP_563_708MM
  6
Continuous
 62
     7
100
AcDbLine
 10
67.3020312846
 20
200.7847892876
 30
0.0
 11
67.0606099283
 21
200.5433679314
 31
0.0
  0
LINE
  5
94
330
70
100
AcDbEntity
  8
AP_563_708MM
  6
Continuous
 62
     7
100
AcDbLine
 10
67.0606099283
 20
200.5433679314
 30
0.0
 11
67.0606099283
 21
200.2285636376
 31
0.0
  0
ARC
  5
95
330
70
100
AcDbEntity
  8
AP_563_708MM
  6
Continuous
 62
     7
100
AcDbCircle
 10
69.3606099283
 20
195.0261132906
 30
0.0
 40
0.5000000000000004
100
AcDbArc
 50
270.0
 51
358.7008998379
  0
LINE
  5
96
330
70
100
AcDbEntity
  8
AP_563_708MM
  6
Continuous
 62
     7
100
AcDbLine
 10
69.8604814111
 20
195.7762419086
 30
0.0
 11
69.4616087056
 21
196.1751146141
 31
0.0
  0
ARC
  5
97
330
70
100
AcDbEntity
  8
AP_563_708MM
  6
Continuous
 62
     7
100
AcDbCircle
 10
69.0606099283
 20
196.0761133914
 30
0.0
 40
0.2000000000000005
100
AcDbArc
 50
150.3298465187
 51
170.9047335543
  0
LINE
  5
98
330
70
100
AcDbEntity
  8
AP_563_708MM
  6
Continuous
 62
     7
100
AcDbLine
 10
68.8606099283
 20
196.0251842224
 30
0.0
 11
68.8606099283
 21
195.5261133391
 31
0.0
  0
LINE
  5
99
330
70
100
AcDbEntity
  8
AP_563_708MM
  6
Continuous
 62
     7
100
AcDbLine
 10
68.8606099283
 20
195.5261133391
 30
0.0
 11
66.5106099283
 21
195.5261135716
 31
0.0
  0
LINE
  5
9A
330
70
100
AcDbEntity
  8
AP_563_708MM
  6
Continuous
 62
     7
100
AcDbLine
 10
66.5106099283
 20
195.5261135716
 30
0.0
 11
66.5106099283
 21
198.1643217537
 31
0.0
  0
ARC
  5
9B
330
70
100
AcDbEntity
  8
AP_563_708MM
  6
Continuous
 62
     7
100
AcDbCircle
 10
65.9157239388
 20
200.2303833838
 30
0.0
 40
2.150000000000001
100
AcDbArc
 50
286.0628215178
 51
340.8815502487
  0
LINE
  5
9C
330
70
100
AcDbEntity
  8
AP_563_708MM
  6
Continuous
 62
     7
100
AcDbLine
 10
67.9471374554
 20
199.5262107312
 30
0.0
 11
68.8606099283
 21
199.5262106615
 31
0.0
  0
LINE
  5
9D
330
70
100
AcDbEntity
  8
AP_563_708MM
  6
Continuous
 62
     7
100
AcDbLine
 10
68.8606099283
 20
199.5262106615
 30
0.0
 11
68.8606099283
 21
199.0264098032
 31
0.0
  0
ARC
  5
9E
330
70
100
AcDbEntity
  8
AP_563_708MM
  6
Continuous
 62
     7
100
AcDbCircle
 10
69.0606099283
 20
198.9762106954
 30
0.0
 40
0.2000000000000001
100
AcDbArc
 50
180.0
 51
209.9111491712
  0
LINE
  5
9F
330
70
100
AcDbEntity
  8
AP_563_708MM
  6
Continuous
 62
     7
100
AcDbLine
 10
69.4608786444
 20
198.8764794115
 30
0.0
 11
69.860481414
 21
199.276082181
 31
0.0
  0
LINE
  5
A0
330
70
100
AcDbEntity
  8
AP_563_708MM
  6
Continuous
 62
     7
100
AcDbLine
 10
69.8606099283
 20
200.5441092128
 30
0.0
 11
69.8606099283
 21
202.4013351824
 31
0.0
  0
LINE
  5
A1
330
70
100
AcDbEntity
  8
AP_563_708MM
  6
Continuous
 62
     7
100
AcDbLine
 10
69.8606099283
 20
202.6502588432
 30
0.0
 11
69.8606099283
 21
203.2285636376
 31
0.0
  0
LINE
  5
A2
330
70
100
AcDbEntity
  8
AP_563_708MM
  6
Continuous
 62
     7
100
AcDbLine
 10
68.8606099283
 20
203.2285636376
 30
0.0
 11
68.8606099283
 21
200.5262106439
 31
0.0
  0
LINE
  5
A3
330
70
100
AcDbEntity
  8
AP_563_708MM
  6
Continuous
 62
     7
100
AcDbLine
 10
68.8606099283
 20
203.2285636376
 30
0.0
 11
68.8606099283
 21
203.7285636376
 31
0.0
  0
LINE
  5
A4
330
70
100
AcDbEntity
  8
AP_563_708MM
  6
Continuous
 62
     7
100
AcDbLine
 10
61.9606099283
 20
203.2285636376
 30
0.0
 11
61.9606099283
 21
202.6502588431
 31
0.0
  0
LINE
  5
A5
330
70
100
AcDbEntity
  8
AP_563_708MM
  6
Continuous
 62
     7
100
AcDbLine
 10
61.9606099283
 20
202.4013351825
 30
0.0
 11
61.9606099283
 21
200.5441092075
 31
0.0
  0
LINE
  5
A6
330
70
100
AcDbEntity
  8
AP_563_708MM
  6
Continuous
 62
     7
100
AcDbLine
 10
62.9606099283
 20
203.2285636376
 30
0.0
 11
61.9606099283
 21
203.2285636376
 31
0.0
  0
LINE
  5
A7
330
70
100
AcDbEntity
  8
AP_563_708MM
  6
Continuous
 62
     7
100
AcDbLine
 10
69.8606099283
 20
203.2285636376
 30
0.0
 11
68.8606099283
 21
203.2285636376
 31
0.0
  0
ARC
  5
A8
330
70
100
AcDbEntity
  8
AP_563_708MM
  6
Continuous
 62
     7
100
AcDbCircle
 10
62.4606099283
 20
213.7285636376
 30
0.0
 40
0.5000000000000004
100
AcDbArc
 50
72.5423968763
 51
90.0
  0
LINE
  5
A9
330
70
100
AcDbEntity
  8
AP_563_708MM
  6
Continuous
 62
     7
100
AcDbLine
 10
62.9606099283
 20
203.7285636376
 30
0.0
 11
62.9606099283
 21
203.2285636376
 31
0.0
  0
LINE
  5
AA
330
70
100
AcDbEntity
  8
AP_563_708MM
  6
Continuous
 62
     7
100
AcDbLine
 10
61.9606099283
 20
203.2285636376
 30
0.0
 11
61.9606099283
 21
214.2285636376
 31
0.0
  0
LINE
  5
AB
330
70
100
AcDbEntity
  8
AP_563_708MM
  6
Continuous
 62
     7
100
AcDbLine
 10
61.9606099283
 20
214.2285636376
 30
0.0
 11
62.4606099283
 21
214.2285636376
 31
0.0
  0
LINE
  5
AC
330
70
100
AcDbEntity
  8
AP_563_708MM
  6
Continuous
 62
     7
100
AcDbLine
 10
69.3606099283
 20
214.2285636376
 30
0.0
 11
69.8606099283
 21
214.2285636376
 31
0.0
  0
LINE
  5
AD
330
70
100
AcDbEntity
  8
AP_563_708MM
  6
Continuous
 62
     7
100
AcDbLine
 10
69.8606099283
 20
214.2285636376
 30
0.0
 11
69.8606099283
 21
203.2285636376
 31
0.0
  0
ARC
  5
AE
330
70
100
AcDbEntity
  8
AP_563_708MM
  6
Continuous
 62
     7
100
AcDbCircle
 10
69.3606099283
 20
213.7285636376
 30
0.0
 40
0.5000000000000004
100
AcDbArc
 50
90.0
 51
107.4576031237
  0
ARC
  5
B0
330
70
100
AcDbEntity
  8
AF_079_EINBAU
  6
Continuous
 62
     7
100
AcDbCircle
 10
65.9106099283
 20
201.2285636376
 30
0.0
 40
1.0
100
AcDbArc
 50
180.0
 51
0.0
  0
LINE
  5
B1
330
70
100
AcDbEntity
  8
AF_079_EINBAU
  6
Continuous
 62
     7
100
AcDbLine
 10
66.9106099283
 20
201.2285636376
 30
0.0
 11
66.9106099283
 21
201.2446318538
 31
0.0
  0
LINE
  5
B2
330
70
100
AcDbEntity
  8
AF_079_EINBAU
  6
Continuous
 62
     7
100
AcDbLine
 10
64.9106099283
 20
201.2446318538
 30
0.0
 11
64.9106099283
 21
201.2285636376
 31
0.0
  0
LINE
  5
B3
330
70
100
AcDbEntity
  8
AF_079_EINBAU
  6
Continuous
 62
     7
100
AcDbLine
 10
64.9106099283
 20
203.7285636376
 30
0.0
 11
64.9106099283
 21
201.2446318538
 31
0.0
  0
LINE
  5
B4
330
70
100
AcDbEntity
  8
AF_079_EINBAU
  6
Continuous
 62
     7
100
AcDbLine
 10
66.9106099283
 20
201.2446318538
 30
0.0
 11
66.9106099283
 21
203.7285636376
 31
0.0
  0
ARC
  5
B6
330
70
100
AcDbEntity
  8
AF_080
  6
Continuous
 62
     7
100
AcDbCircle
 10
68.9125046652
 20
203.4257867772
 30
0.0
 40
0.5999999999999999
100
AcDbArc
 50
180.0
 51
265.0382182102
  0
LINE
  5
B7
330
70
100
AcDbEntity
  8
AF_080
  6
Continuous
 62
     7
100
AcDbLine
 10
68.3125046652
 20
203.7285636376
 30
0.0
 11
68.3125046652
 21
203.4257867772
 31
0.0
  0
ARC
  5
B8
330
70
100
AcDbEntity
  8
AF_080
  6
Continuous
 62
     7
100
AcDbCircle
 10
62.9087151915
 20
203.4257867772
 30
0.0
 40
0.5999999999999999
100
AcDbArc
 50
274.9617817898
 51
0.0
  0
LINE
  5
B9
330
70
100
AcDbEntity
  8
AF_080
  6
Continuous
 62
     7
100
AcDbLine
 10
63.5087151915
 20
203.4257867772
 30
0.0
 11
63.5087151915
 21
203.7285636376
 31
0.0
  0
LINE
  5
BB
330
70
100
AcDbEntity
  8
AW_126
  6
Continuous
 62
     7
100
AcDbLine
 10
60.8463627033
 20
217.7285636376
 30
0.0
 11
60.8463627033
 21
218.9285636376
 31
0.0
  0
LINE
  5
BC
330
70
100
AcDbEntity
  8
AW_126
  6
Continuous
 62
     7
100
AcDbLine
 10
70.9963627033
 20
218.9285636376
 30
0.0
 11
70.9963627033
 21
217.745347681
 31
0.0
  0
CIRCLE
  5
BD
330
70
100
AcDbEntity
  8
AW_126
  6
Continuous
 62
     7
100
AcDbCircle
 10
65.9106099283
 20
228.8263414154
 30
0.0
 40
3.25
  0
ARC
  5
BE
330
70
100
AcDbEntity
  8
AW_126
  6
Continuous
 62
     7
100
AcDbCircle
 10
65.9100577177
 20
229.9263414252
 30
0.0
 40
6.500000000000003
100
AcDbArc
 50
0.0
 51
180.0
  0
LINE
  5
BF
330
70
100
AcDbEntity
  8
AW_126
  6
Continuous
 62
     7
100
AcDbLine
 10
72.4100577177
 20
229.9263414252
 30
0.0
 11
72.4100577177
 21
219.745347681
 31
0.0
  0
LINE
  5
C0
330
70
100
AcDbEntity
  8
AW_126
  6
Continuous
 62
     7
100
AcDbLine
 10
70.9963627033
 20
218.9285636376
 30
0.0
 11
70.9963627033
 21
219.045347681
 31
0.0
  0
LINE
  5
C1
330
70
100
AcDbEntity
  8
AW_126
  6
Continuous
 62
     7
100
AcDbLine
 10
59.4100577177
 20
219.745347681
 30
0.0
 11
59.4100577177
 21
229.9263414252
 31
0.0
  0
LINE
  5
C2
330
70
100
AcDbEntity
  8
AW_126
  6
Continuous
 62
     7
100
AcDbLine
 10
59.9100577177
 20
219.245347681
 30
0.0
 11
60.6463627033
 21
219.245347681
 31
0.0
  0
ARC
  5
C3
330
70
100
AcDbEntity
  8
AW_126
  6
Continuous
 62
     7
100
AcDbCircle
 10
59.9100577177
 20
219.745347681
 30
0.0
 40
0.5000000000000004
100
AcDbArc
 50
180.0
 51
270.0
  0
ARC
  5
C4
330
70
100
AcDbEntity
  8
AW_126
  6
Continuous
 62
     7
100
AcDbCircle
 10
71.9100577177
 20
219.745347681
 30
0.0
 40
0.4999999999999952
100
AcDbArc
 50
270.0
 51
0.0
  0
LINE
  5
C5
330
70
100
AcDbEntity
  8
AW_126
  6
Continuous
 62
     7
100
AcDbLine
 10
70.9748571534
 20
217.7285636376
 30
0.0
 11
60.8463627033
 21
217.7285636376
 31
0.0
  0
LINE
  5
C6
330
70
100
AcDbEntity
  8
AW_126
  6
Continuous
 62
     7
100
AcDbLine
 10
70.9748571534
 20
217.7285636376
 30
0.0
 11
70.9748571534
 21
217.745347681
 31
0.0
  0
LINE
  5
C7
330
70
100
AcDbEntity
  8
AW_126
  6
Continuous
 62
     7
100
AcDbLine
 10
70.9748571534
 20
217.745347681
 30
0.0
 11
70.9963627033
 21
217.745347681
 31
0.0
  0
LINE
  5
C8
330
70
100
AcDbEntity
  8
AW_126
  6
Continuous
 62
     7
100
AcDbLine
 10
60.8463627033
 20
219.045347681
 30
0.0
 11
60.8463627033
 21
218.9285636376
 31
0.0
  0
ARC
  5
C9
330
70
100
AcDbEntity
  8
AW_126
  6
Continuous
 62
     7
100
AcDbCircle
 10
60.6463627033
 20
219.045347681
 30
0.0
 40
0.2000000000000057
100
AcDbArc
 50
0.0
 51
90.0
  0
LINE
  5
CA
330
70
100
AcDbEntity
  8
AW_126
  6
Continuous
 62
     7
100
AcDbLine
 10
71.1963627033
 20
219.245347681
 30
0.0
 11
71.9100577177
 21
219.245347681
 31
0.0
  0
ARC
  5
CB
330
70
100
AcDbEntity
  8
AW_126
  6
Continuous
 62
     7
100
AcDbCircle
 10
71.1963627033
 20
219.045347681
 30
0.0
 40
0.1999999999999988
100
AcDbArc
 50
90.0
 51
180.0
  0
LINE
  5
CE
330
70
100
AcDbEntity
  8
AP_562_M
  6
HIDDEN2
 62
     7
100
AcDbLine
 10
71.3106099283
 20
219.7285636376
 30
0.0
 11
60.5106099283
 21
219.7285636376
 31
0.0
  0
LINE
  5
CF
330
70
100
AcDbEntity
  8
AP_562_M
  6
Continuous
 62
     7
100
AcDbLine
 10
61.1606099283
 20
216.4285636376
 30
0.0
 11
61.1606099283
 21
217.2285636376
 31
0.0
  0
ARC
  5
D0
330
70
100
AcDbEntity
  8
AP_562_M
  6
Continuous
 62
     7
100
AcDbCircle
 10
61.1606099283
 20
216.0785636376
 30
0.0
 40
0.3499999999999996
100
AcDbArc
 50
90.0
 51
270.0
  0
LINE
  5
D1
330
70
100
AcDbEntity
  8
AP_562_M
  6
Continuous
 62
     7
100
AcDbLine
 10
60.7106099283
 20
214.7285636376
 30
0.0
 11
62.2106099283
 21
214.7285636376
 31
0.0
  0
ARC
  5
D2
330
70
100
AcDbEntity
  8
AP_562_M
  6
Continuous
 62
     7
100
AcDbCircle
 10
60.7106099283
 20
214.5285636376
 30
0.0
 40
0.1999999999999988
100
AcDbArc
 50
165.5512048964
 51
180.0
  0
ARC
  5
D3
330
70
100
AcDbEntity
  8
AP_562_M
  6
HIDDEN2
 62
     7
100
AcDbCircle
 10
60.7106099283
 20
214.5285636376
 30
0.0
 40
0.1999999999999988
100
AcDbArc
 50
93.4623999835
 51
165.5512048964
  0
ARC
  5
D4
330
70
100
AcDbEntity
  8
AP_562_M
  6
Continuous
 62
     7
100
AcDbCircle
 10
60.7106099283
 20
214.5285636376
 30
0.0
 40
0.1999999999999988
100
AcDbArc
 50
90.0
 51
93.4623999835
  0
LINE
  5
D5
330
70
100
AcDbEntity
  8
AP_562_M
  6
Continuous
 62
     7
100
AcDbLine
 10
60.5106099283
 20
189.9285636376
 30
0.0
 11
60.5106099283
 21
214.5285636376
 31
0.0
  0
ARC
  5
D6
330
70
100
AcDbEntity
  8
AP_562_M
  6
Continuous
 62
     7
100
AcDbCircle
 10
60.3106099283
 20
189.9285636376
 30
0.0
 40
0.1999999999999988
100
AcDbArc
 50
270.0
 51
0.0
  0
LINE
  5
D7
330
70
100
AcDbEntity
  8
AP_562_M
  6
Continuous
 62
     7
100
AcDbLine
 10
59.7106099283
 20
189.7285636376
 30
0.0
 11
60.3106099283
 21
189.7285636376
 31
0.0
  0
ARC
  5
D8
330
70
100
AcDbEntity
  8
AP_562_M
  6
Continuous
 62
     7
100
AcDbCircle
 10
59.7106099283
 20
189.9285636376
 30
0.0
 40
0.1999999999999997
100
AcDbArc
 50
180.0
 51
270.0
  0
LINE
  5
D9
330
70
100
AcDbEntity
  8
AP_562_M
  6
Continuous
 62
     7
100
AcDbLine
 10
59.5106099283
 20
218.7285636376
 30
0.0
 11
59.5106099283
 21
189.9285636376
 31
0.0
  0
ARC
  5
DA
330
70
100
AcDbEntity
  8
AP_562_M
  6
HIDDEN2
 62
     7
100
AcDbCircle
 10
60.5106099283
 20
218.7285636376
 30
0.0
 40
1.000000000000001
100
AcDbArc
 50
90.0
 51
145.3368967539
  0
ARC
  5
DB
330
70
100
AcDbEntity
  8
AP_562_M
  6
Continuous
 62
     7
100
AcDbCircle
 10
60.5106099283
 20
218.7285636376
 30
0.0
 40
1.000000000000001
100
AcDbArc
 50
145.3368967539
 51
180.0
  0
LINE
  5
DC
330
70
100
AcDbEntity
  8
AP_562_M
  6
Continuous
 62
     7
100
AcDbLine
 10
60.7106099283
 20
218.7285636376
 30
0.0
 11
60.8463627033
 21
218.7285636376
 31
0.0
  0
LINE
  5
DD
330
70
100
AcDbEntity
  8
AP_562_M
  6
HIDDEN2
 62
     7
100
AcDbLine
 10
60.8463627033
 20
218.7285636376
 30
0.0
 11
70.9963627033
 21
218.7285636376
 31
0.0
  0
LINE
  5
DE
330
70
100
AcDbEntity
  8
AP_562_M
  6
Continuous
 62
     7
100
AcDbLine
 10
70.9963627033
 20
218.7285636376
 30
0.0
 11
71.1106099283
 21
218.7285636376
 31
0.0
  0
ARC
  5
DF
330
70
100
AcDbEntity
  8
AP_562_M
  6
Continuous
 62
     7
100
AcDbCircle
 10
60.7106099283
 20
218.5285636376
 30
0.0
 40
0.1999999999999997
100
AcDbArc
 50
90.0
 51
180.0
  0
LINE
  5
E0
330
70
100
AcDbEntity
  8
AP_562_M
  6
Continuous
 62
     7
100
AcDbLine
 10
62.4106099283
 20
214.9285636376
 30
0.0
 11
62.4106099283
 21
215.5285636376
 31
0.0
  0
ARC
  5
E1
330
70
100
AcDbEntity
  8
AP_562_M
  6
Continuous
 62
     7
100
AcDbCircle
 10
62.2106099283
 20
214.9285636376
 30
0.0
 40
0.1999999999999988
100
AcDbArc
 50
270.0
 51
0.0
  0
LINE
  5
E2
330
70
100
AcDbEntity
  8
AP_562_M
  6
Continuous
 62
     7
100
AcDbLine
 10
62.2106099283
 20
215.7285636376
 30
0.0
 11
61.1606099283
 21
215.7285636376
 31
0.0
  0
ARC
  5
E3
330
70
100
AcDbEntity
  8
AP_562_M
  6
Continuous
 62
     7
100
AcDbCircle
 10
62.2106099283
 20
215.5285636376
 30
0.0
 40
0.2000000000000001
100
AcDbArc
 50
0.0
 51
90.0
  0
LINE
  5
E4
330
70
100
AcDbEntity
  8
AP_562_M
  6
Continuous
 62
     7
100
AcDbLine
 10
60.9606099283
 20
217.4285636376
 30
0.0
 11
60.7106099283
 21
217.4285636376
 31
0.0
  0
ARC
  5
E5
330
70
100
AcDbEntity
  8
AP_562_M
  6
Continuous
 62
     7
100
AcDbCircle
 10
60.9606099283
 20
217.2285636376
 30
0.0
 40
0.1999999999999997
100
AcDbArc
 50
0.0
 51
90.0
  0
LINE
  5
E6
330
70
100
AcDbEntity
  8
AP_562_M
  6
Continuous
 62
     7
100
AcDbLine
 10
60.5106099283
 20
217.6285636376
 30
0.0
 11
60.5106099283
 21
218.5285636376
 31
0.0
  0
ARC
  5
E7
330
70
100
AcDbEntity
  8
AP_562_M
  6
Continuous
 62
     7
100
AcDbCircle
 10
60.7106099283
 20
217.6285636376
 30
0.0
 40
0.2000000000000005
100
AcDbArc
 50
180.0
 51
270.0
  0
ARC
  5
E8
330
70
100
AcDbEntity
  8
AP_562_M
  6
HIDDEN2
 62
     7
100
AcDbCircle
 10
71.3106099283
 20
218.7285636376
 30
0.0
 40
1.000000000000001
100
AcDbArc
 50
34.6915414994
 51
90.0
  0
ARC
  5
E9
330
70
100
AcDbEntity
  8
AP_562_M
  6
Continuous
 62
     7
100
AcDbCircle
 10
71.3106099283
 20
218.7285636376
 30
0.0
 40
1.000000000000001
100
AcDbArc
 50
0.0
 51
34.6915414994
  0
LINE
  5
EA
330
70
100
AcDbEntity
  8
AP_562_M
  6
Continuous
 62
     7
100
AcDbLine
 10
72.3106099283
 20
218.7285636376
 30
0.0
 11
72.3106099283
 21
189.9285636376
 31
0.0
  0
ARC
  5
EB
330
70
100
AcDbEntity
  8
AP_562_M
  6
Continuous
 62
     7
100
AcDbCircle
 10
72.1106099283
 20
189.9285636376
 30
0.0
 40
0.1999999999999997
100
AcDbArc
 50
270.0
 51
0.0
  0
LINE
  5
EC
330
70
100
AcDbEntity
  8
AP_562_M
  6
Continuous
 62
     7
100
AcDbLine
 10
72.1106099283
 20
189.7285636376
 30
0.0
 11
71.5106099283
 21
189.7285636376
 31
0.0
  0
ARC
  5
ED
330
70
100
AcDbEntity
  8
AP_562_M
  6
Continuous
 62
     7
100
AcDbCircle
 10
71.5106099283
 20
189.9285636376
 30
0.0
 40
0.1999999999999988
100
AcDbArc
 50
180.0
 51
270.0
  0
LINE
  5
EE
330
70
100
AcDbEntity
  8
AP_562_M
  6
Continuous
 62
     7
100
AcDbLine
 10
71.3106099283
 20
189.9285636376
 30
0.0
 11
71.3106099283
 21
214.5285636376
 31
0.0
  0
ARC
  5
EF
330
70
100
AcDbEntity
  8
AP_562_M
  6
Continuous
 62
     7
100
AcDbCircle
 10
71.1106099283
 20
214.5285636376
 30
0.0
 40
0.1999999999999988
100
AcDbArc
 50
0.0
 51
14.4487951036
  0
ARC
  5
F0
330
70
100
AcDbEntity
  8
AP_562_M
  6
HIDDEN2
 62
     7
100
AcDbCircle
 10
71.1106099283
 20
214.5285636376
 30
0.0
 40
0.1999999999999988
100
AcDbArc
 50
14.4487951036
 51
86.5376000166
  0
ARC
  5
F1
330
70
100
AcDbEntity
  8
AP_562_M
  6
Continuous
 62
     7
100
AcDbCircle
 10
71.1106099283
 20
214.5285636376
 30
0.0
 40
0.1999999999999988
100
AcDbArc
 50
86.5376000166
 51
90.0
  0
LINE
  5
F2
330
70
100
AcDbEntity
  8
AP_562_M
  6
Continuous
 62
     7
100
AcDbLine
 10
71.1106099283
 20
214.7285636376
 30
0.0
 11
69.6106099283
 21
214.7285636376
 31
0.0
  0
LINE
  5
F3
330
70
100
AcDbEntity
  8
AP_562_M
  6
Continuous
 62
     7
100
AcDbLine
 10
69.4106099283
 20
214.9285636376
 30
0.0
 11
69.4106099283
 21
215.5285636376
 31
0.0
  0
LINE
  5
F4
330
70
100
AcDbEntity
  8
AP_562_M
  6
Continuous
 62
     7
100
AcDbLine
 10
69.6106099283
 20
215.7285636376
 30
0.0
 11
70.6606099283
 21
215.7285636376
 31
0.0
  0
ARC
  5
F5
330
70
100
AcDbEntity
  8
AP_562_M
  6
Continuous
 62
     7
100
AcDbCircle
 10
70.6606099283
 20
216.0785636376
 30
0.0
 40
0.3499999999999996
100
AcDbArc
 50
270.0
 51
90.0
  0
LINE
  5
F6
330
70
100
AcDbEntity
  8
AP_562_M
  6
Continuous
 62
     7
100
AcDbLine
 10
70.6606099283
 20
216.4285636376
 30
0.0
 11
70.6606099283
 21
217.2285636376
 31
0.0
  0
LINE
  5
F7
330
70
100
AcDbEntity
  8
AP_562_M
  6
Continuous
 62
     7
100
AcDbLine
 10
70.8606099283
 20
217.4285636376
 30
0.0
 11
71.1106099283
 21
217.4285636376
 31
0.0
  0
LINE
  5
F8
330
70
100
AcDbEntity
  8
AP_562_M
  6
Continuous
 62
     7
100
AcDbLine
 10
71.3106099283
 20
217.6285636376
 30
0.0
 11
71.3106099283
 21
218.5285636376
 31
0.0
  0
ARC
  5
F9
330
70
100
AcDbEntity
  8
AP_562_M
  6
Continuous
 62
     7
100
AcDbCircle
 10
71.1106099283
 20
218.5285636376
 30
0.0
 40
0.1999999999999997
100
AcDbArc
 50
0.0
 51
90.0
  0
ARC
  5
FA
330
70
100
AcDbEntity
  8
AP_562_M
  6
Continuous
 62
     7
100
AcDbCircle
 10
69.6106099283
 20
214.9285636376
 30
0.0
 40
0.1999999999999988
100
AcDbArc
 50
180.0
 51
270.0
  0
ARC
  5
FB
330
70
100
AcDbEntity
  8
AP_562_M
  6
Continuous
 62
     7
100
AcDbCircle
 10
69.6106099283
 20
215.5285636376
 30
0.0
 40
0.2000000000000001
100
AcDbArc
 50
90.0
 51
180.0
  0
ARC
  5
FC
330
70
100
AcDbEntity
  8
AP_562_M
  6
Continuous
 62
     7
100
AcDbCircle
 10
70.8606099283
 20
217.2285636376
 30
0.0
 40
0.1999999999999997
100
AcDbArc
 50
90.0
 51
180.0
  0
ARC
  5
FD
330
70
100
AcDbEntity
  8
AP_562_M
  6
Continuous
 62
     7
100
AcDbCircle
 10
71.1106099283
 20
217.6285636376
 30
0.0
 40
0.2000000000000005
100
AcDbArc
 50
270.0
 51
0.0
  0
LINE
  5
FF
330
70
100
AcDbEntity
  8
AJ_359
  6
Continuous
 62
     7
100
AcDbLine
 10
69.2106099283
 20
217.2285636376
 30
0.0
 11
70.4106099283
 21
217.2285636376
 31
0.0
  0
LINE
  5
100
330
70
100
AcDbEntity
  8
AJ_359
  6
Continuous
 62
     7
100
AcDbLine
 10
70.4106099283
 20
217.2285636376
 30
0.0
 11
70.4106099283
 21
215.7285636376
 31
0.0
  0
LINE
  5
101
330
70
100
AcDbEntity
  8
AJ_359
  6
Continuous
 62
     7
100
AcDbLine
 10
69.6106099283
 20
215.7285636376
 30
0.0
 11
69.2106099283
 21
215.7285636376
 31
0.0
  0
LINE
  5
102
330
70
100
AcDbEntity
  8
AJ_359
  6
Continuous
 62
     7
100
AcDbLine
 10
62.6106099283
 20
215.7285636376
 30
0.0
 11
62.2106099283
 21
215.7285636376
 31
0.0
  0
LINE
  5
103
330
70
100
AcDbEntity
  8
AJ_359
  6
Continuous
 62
     7
100
AcDbLine
 10
61.4106099283
 20
215.7285636376
 30
0.0
 11
61.4106099283
 21
217.2285636376
 31
0.0
  0
LINE
  5
104
330
70
100
AcDbEntity
  8
AJ_359
  6
Continuous
 62
     7
100
AcDbLine
 10
62.6106099283
 20
217.2285636376
 30
0.0
 11
61.4106099283
 21
217.2285636376
 31
0.0
  0
LINE
  5
105
330
70
100
AcDbEntity
  8
AJ_359
  6
Continuous
 62
     7
100
AcDbLine
 10
62.6106099283
 20
217.2285636376
 30
0.0
 11
69.2106099283
 21
217.2285636376
 31
0.0
  0
LINE
  5
106
330
70
100
AcDbEntity
  8
AJ_359
  6
Continuous
 62
     7
100
AcDbLine
 10
69.2106099283
 20
203.7435280519
 30
0.0
 11
69.2106099283
 21
203.7285636376
 31
0.0
  0
LINE
  5
107
330
70
100
AcDbEntity
  8
AJ_359
  6
Continuous
 62
     7
100
AcDbLine
 10
69.2106099283
 20
217.2135992234
 30
0.0
 11
69.2106099283
 21
203.7435280519
 31
0.0
  0
LINE
  5
108
330
70
100
AcDbEntity
  8
AJ_359
  6
Continuous
 62
     7
100
AcDbLine
 10
69.2106099283
 20
217.2285636376
 30
0.0
 11
69.2106099283
 21
217.2135992234
 31
0.0
  0
LINE
  5
109
330
70
100
AcDbEntity
  8
AJ_359
  6
Continuous
 62
     7
100
AcDbLine
 10
62.6106099283
 20
203.7285636376
 30
0.0
 11
62.6106099283
 21
203.7435280519
 31
0.0
  0
LINE
  5
10A
330
70
100
AcDbEntity
  8
AJ_359
  6
Continuous
 62
     7
100
AcDbLine
 10
62.6106099283
 20
203.7435280519
 30
0.0
 11
62.6106099283
 21
217.2135992234
 31
0.0
  0
LINE
  5
10B
330
70
100
AcDbEntity
  8
AJ_359
  6
Continuous
 62
     7
100
AcDbLine
 10
62.6106099283
 20
217.2135992234
 30
0.0
 11
62.6106099283
 21
217.2285636376
 31
0.0
  0
LINE
  5
10C
330
70
100
AcDbEntity
  8
AJ_359
  6
Continuous
 62
     7
100
AcDbLine
 10
69.2106099283
 20
203.7285636376
 30
0.0
 11
62.6106099283
 21
203.7285636376
 31
0.0
  0
SPLINE
  5
10D
330
70
100
AcDbEntity
  8
AJ_359
  6
Continuous
 62
     7
100
AcDbSpline
210
0.0
220
0.0
230
1.0
 70
     8
 71
     3
 72
    20
 73
    16
 74
     0
 42
0.000000001
 43
0.0000000001
 40
0.0
 40
0.0
 40
0.0
 40
0.0
 40
0.1920626564234774
 40
0.1920626564234774
 40
0.1920626564234774
 40
0.4259408065429229
 40
0.4259408065429229
 40
0.4259408065429229
 40
0.7449077213504677
 40
0.7449077213504677
 40
0.7449077213504677
 40
0.9945387088065732
 40
0.9945387088065732
 40
0.9945387088065732
 40
1.0
 40
1.0
 40
1.0
 40
1.0
 10
62.61060992833725
 20
203.7435280518857
 30
0.0
 10
62.61060992833725
 20
203.7560838905501
 30
0.0
 10
62.61896593159212
 20
203.7763216193346
 30
0.0
 10
62.63306790805241
 20
203.8006887531714
 30
0.0
 10
62.65024723549079
 20
203.830373313495
 30
0.0
 10
62.67627332063189
 20
203.8669879850304
 30
0.0
 10
62.70698342372226
 20
203.9061616787089
 30
0.0
 10
62.74875643398647
 20
203.9594471757749
 30
0.0
 10
62.80042384805956
 20
204.0191329095953
 30
0.0
 10
62.85607000636427
 20
204.0797053026699
 30
0.0
 10
62.8998878015199
 20
204.1274021930337
 30
0.0
 10
62.94696759328243
 20
204.1765282556646
 30
0.0
 10
62.9954386850034
 20
204.2253705070999
 30
0.0
 10
62.99649496535051
 20
204.2264348757466
 30
0.0
 10
62.99755205259899
 20
204.2274992579104
 30
0.0
 10
62.99860992833728
 20
204.2285636376311
 30
0.0
  0
SPLINE
  5
10E
330
70
100
AcDbEntity
  8
AJ_359
  6
Continuous
 62
     7
100
AcDbSpline
210
0.0
220
0.0
230
1.0
 70
     8
 71
     3
 72
    20
 73
    16
 74
     0
 42
0.000000001
 43
0.0000000001
 40
0.0
 40
0.0
 40
0.0
 40
0.0
 40
0.0054612911934266
 40
0.0054612911934266
 40
0.0054612911934266
 40
0.2550922786495285
 40
0.2550922786495285
 40
0.2550922786495285
 40
0.5740591934570767
 40
0.5740591934570767
 40
0.5740591934570767
 40
0.8079373435765225
 40
0.8079373435765225
 40
0.8079373435765225
 40
1.0
 40
1.0
 40
1.0
 40
1.0
 10
68.82260992833723
 20
204.2285636376311
 30
0.0
 10
68.82366780407553
 20
204.2274992579104
 30
0.0
 10
68.82472489132397
 20
204.2264348757465
 30
0.0
 10
68.82578117167107
 20
204.2253705070999
 30
0.0
 10
68.87425226339249
 20
204.1765282556649
 30
0.0
 10
68.92133205515462
 20
204.1274021930337
 30
0.0
 10
68.96514985031024
 20
204.0797053026699
 30
0.0
 10
69.02079600861495
 20
204.0191329095953
 30
0.0
 10
69.07246342268803
 20
203.9594471757749
 30
0.0
 10
69.11423643295225
 20
203.9061616787089
 30
0.0
 10
69.14494653604262
 20
203.8669879850304
 30
0.0
 10
69.17097262118372
 20
203.830373313495
 30
0.0
 10
69.1881519486221
 20
203.8006887531714
 30
0.0
 10
69.20225392508239
 20
203.7763216193346
 30
0.0
 10
69.21060992833725
 20
203.7560838905501
 30
0.0
 10
69.21060992833725
 20
203.7435280518857
 30
0.0
  0
SPLINE
  5
10F
330
70
100
AcDbEntity
  8
AJ_359
  6
Continuous
 62
     7
100
AcDbSpline
210
0.0
220
0.0
230
1.0
 70
     8
 71
     3
 72
    20
 73
    16
 74
     0
 42
0.000000001
 43
0.0000000001
 40
0.0
 40
0.0
 40
0.0
 40
0.0
 40
0.1920626564234774
 40
0.1920626564234774
 40
0.1920626564234774
 40
0.4259408065429225
 40
0.4259408065429225
 40
0.4259408065429225
 40
0.7449077213504675
 40
0.7449077213504675
 40
0.7449077213504675
 40
0.9945387088065751
 40
0.9945387088065751
 40
0.9945387088065751
 40
1.0
 40
1.0
 40
1.0
 40
1.0
 10
62.61060992833725
 20
217.2135992233766
 30
0.0
 10
62.61060992833725
 20
217.2010433847122
 30
0.0
 10
62.61896593159214
 20
217.1808056559277
 30
0.0
 10
62.63306790805241
 20
217.1564385220909
 30
0.0
 10
62.65024723549079
 20
217.1267539617673
 30
0.0
 10
62.67627332063189
 20
217.0901392902319
 30
0.0
 10
62.70698342372227
 20
217.0509655965534
 30
0.0
 10
62.74875643398647
 20
216.9976800994874
 30
0.0
 10
62.80042384805956
 20
216.937994365667
 30
0.0
 10
62.85607000636427
 20
216.8774219725924
 30
0.0
 10
62.8998878015199
 20
216.8297250822285
 30
0.0
 10
62.94696759328244
 20
216.7805990195978
 30
0.0
 10
62.99543868500341
 20
216.7317567681624
 30
0.0
 10
62.99649496535052
 20
216.7306923995157
 30
0.0
 10
62.99755205259899
 20
216.7296280173519
 30
0.0
 10
62.99860992833728
 20
216.7285636376311
 30
0.0
  0
SPLINE
  5
110
330
70
100
AcDbEntity
  8
AJ_359
  6
Continuous
 62
     7
100
AcDbSpline
210
0.0
220
0.0
230
1.0
 70
     8
 71
     3
 72
    20
 73
    16
 74
     0
 42
0.000000001
 43
0.0000000001
 40
0.0
 40
0.0
 40
0.0
 40
0.0
 40
0.0054612911934254
 40
0.0054612911934254
 40
0.0054612911934254
 40
0.2550922786495261
 40
0.2550922786495261
 40
0.2550922786495261
 40
0.5740591934570768
 40
0.5740591934570768
 40
0.5740591934570768
 40
0.8079373435765171
 40
0.8079373435765171
 40
0.8079373435765171
 40
1.0
 40
1.0
 40
1.0
 40
1.0
 10
68.82260992833723
 20
216.7285636376311
 30
0.0
 10
68.8236678040755
 20
216.729628017352
 30
0.0
 10
68.82472489132383
 20
216.7306923995159
 30
0.0
 10
68.82578117167097
 20
216.7317567681625
 30
0.0
 10
68.8742522633939
 20
216.7805990195959
 30
0.0
 10
68.92133205515462
 20
216.8297250822285
 30
0.0
 10
68.96514985031024
 20
216.8774219725924
 30
0.0
 10
69.02079600861495
 20
216.937994365667
 30
0.0
 10
69.07246342268803
 20
216.9976800994874
 30
0.0
 10
69.11423643295225
 20
217.0509655965534
 30
0.0
 10
69.14494653604262
 20
217.0901392902319
 30
0.0
 10
69.17097262118372
 20
217.1267539617673
 30
0.0
 10
69.1881519486221
 20
217.1564385220909
 30
0.0
 10
69.20225392508239
 20
217.1808056559277
 30
0.0
 10
69.21060992833726
 20
217.2010433847122
 30
0.0
 10
69.21060992833726
 20
217.2135992233766
 30
0.0
  0
ARC
  5
111
330
70
100
AcDbEntity
  8
AJ_359
  6
Continuous
 62
     7
100
AcDbCircle
 10
65.9106099283
 20
211.7285636376
 30
0.0
 40
3.75
100
AcDbArc
 50
151.6423634237
 51
208.3576365763
  0
ARC
  5
112
330
70
100
AcDbEntity
  8
AJ_359
  6
Continuous
 62
     7
100
AcDbCircle
 10
65.9106099283
 20
211.7285636376
 30
0.0
 40
3.75
100
AcDbArc
 50
331.6423634237
 51
28.3576365763
  0
ARC
  5
114
330
70
100
AcDbEntity
  8
SPAXSCHRAUBE_3X2
  6
Continuous
 62
     7
100
AcDbCircle
 10
66.1524796728
 20
227.9236712408
 30
0.0
 40
0.4654870695798716
100
AcDbArc
 50
233.6309857988
 51
324.4905643456
  0
ARC
  5
115
330
70
100
AcDbEntity
  8
SPAXSCHRAUBE_3X2
  6
Continuous
 62
     7
100
AcDbCircle
 10
67.7369866695
 20
226.9965443453
 30
0.0
 40
1.372871859924417
100
AcDbArc
 50
121.4461265972
 51
151.4203335506
  0
ARC
  5
116
330
70
100
AcDbEntity
  8
SPAXSCHRAUBE_3X2
  6
Continuous
 62
     7
100
AcDbCircle
 10
66.813280103
 20
228.584471671
 30
0.0
 40
0.4654870695798989
100
AcDbArc
 50
296.470383605
 51
23.076402336
  0
ARC
  5
117
330
70
100
AcDbEntity
  8
SPAXSCHRAUBE_3X2
  6
Continuous
 62
     7
100
AcDbCircle
 10
68.4061403875
 20
229.49386002
 30
0.0
 40
1.372871859924419
100
AcDbArc
 50
182.3006242371
 51
211.9717372349
  0
ARC
  5
118
330
70
100
AcDbEntity
  8
SPAXSCHRAUBE_3X2
  6
Continuous
 62
     7
100
AcDbCircle
 10
66.5714103589
 20
229.4871418457
 30
0.0
 40
0.4654870695799037
100
AcDbArc
 50
354.0326816502
 51
95.9673181619
  0
ARC
  5
119
330
70
100
AcDbEntity
  8
SPAXSCHRAUBE_3X2
  6
Continuous
 62
     7
100
AcDbCircle
 10
66.5781285329
 20
231.3218718745
 30
0.0
 40
1.372871859924416
100
AcDbArc
 50
242.5263208365
 51
267.6993758379
  0
ARC
  5
11A
330
70
100
AcDbEntity
  8
SPAXSCHRAUBE_3X2
  6
Continuous
 62
     7
100
AcDbCircle
 10
65.6687401839
 20
229.7290115901
 30
0.0
 40
0.465487069579901
100
AcDbArc
 50
53.6309858734
 51
146.0967575649
  0
ARC
  5
11B
330
70
100
AcDbEntity
  8
SPAXSCHRAUBE_3X2
  6
Continuous
 62
     7
100
AcDbCircle
 10
64.0808128583
 20
230.6527181565
 30
0.0
 40
1.372871859924417
100
AcDbArc
 50
298.579663731
 51
331.0725006113
  0
ARC
  5
11C
330
70
100
AcDbEntity
  8
SPAXSCHRAUBE_3X2
  6
Continuous
 62
     7
100
AcDbCircle
 10
65.0079397537
 20
229.0682111598
 30
0.0
 40
0.4654870774360689
100
AcDbArc
 50
125.5094436118
 51
216.3690141102
  0
ARC
  5
11D
330
70
100
AcDbEntity
  8
SPAXSCHRAUBE_3X2
  6
Continuous
 62
     7
100
AcDbCircle
 10
63.4150794693
 20
228.1588228108
 30
0.0
 40
1.372871859924419
100
AcDbArc
 50
358.11897032
 51
27.4736791685
  0
ARC
  5
11E
330
70
100
AcDbEntity
  8
SPAXSCHRAUBE_3X2
  6
Continuous
 62
     7
100
AcDbCircle
 10
65.2498094981
 20
228.1655409849
 30
0.0
 40
0.4654870695799109
100
AcDbArc
 50
186.386912644
 51
263.613087049
  0
ARC
  5
11F
330
70
100
AcDbEntity
  8
SPAXSCHRAUBE_3X2
  6
Continuous
 62
     7
100
AcDbCircle
 10
65.2430913238
 20
226.3308109564
 30
0.0
 40
1.37287185992442
100
AcDbArc
 50
62.5263208615
 51
91.8810297745
  0
ARC
  5
121
330
70
100
AcDbEntity
  8
AP_592_703MM
  6
Continuous
 62
     7
100
AcDbCircle
 10
65.9106099284
 20
189.0781985661
 30
0.0
 40
3.900000000000001
100
AcDbArc
 50
29.8449626974
 51
150.155037305
  0
ARC
  5
122
330
70
100
AcDbEntity
  8
AP_592_703MM
  6
Continuous
 62
     7
100
AcDbCircle
 10
65.9106099282
 20
195.2281985667
 30
0.0
 40
5.400000000000002
100
AcDbArc
 50
231.2122159736
 51
308.7877840288
  0
LINE
  5
123
330
70
100
AcDbEntity
  8
AP_592_703MM
  6
Continuous
 62
     7
100
AcDbLine
 10
62.8985592516
 20
198.2261620434
 30
0.0
 11
63.3440780788
 21
198.2261620434
 31
0.0
  0
ARC
  5
124
330
70
100
AcDbEntity
  8
AP_592_703MM
  6
Continuous
 62
     7
100
AcDbCircle
 10
63.3440780788
 20
197.5261620434
 30
0.0
 40
0.6999999999999993
100
AcDbArc
 50
270.0
 51
90.0
  0
LINE
  5
125
330
70
100
AcDbEntity
  8
AP_592_703MM
  6
Continuous
 62
     7
100
AcDbLine
 10
63.3440780788
 20
196.8261620434
 30
0.0
 11
62.8985592516
 21
196.8261620434
 31
0.0
  0
ARC
  5
126
330
70
100
AcDbEntity
  8
AP_592_703MM
  6
Continuous
 62
     7
100
AcDbCircle
 10
62.8985592516
 20
197.5261620434
 30
0.0
 40
0.7000000000000027
100
AcDbArc
 50
90.0
 51
270.0
  0
LINE
  5
127
330
70
100
AcDbEntity
  8
AP_592_703MM
  6
Continuous
 62
     7
100
AcDbLine
 10
68.4771417777
 20
196.8261620434
 30
0.0
 11
68.9226606049
 21
196.8261620434
 31
0.0
  0
ARC
  5
128
330
70
100
AcDbEntity
  8
AP_592_703MM
  6
Continuous
 62
     7
100
AcDbCircle
 10
68.9226606049
 20
197.5261620434
 30
0.0
 40
0.7000000000000027
100
AcDbArc
 50
270.0
 51
90.0
  0
LINE
  5
129
330
70
100
AcDbEntity
  8
AP_592_703MM
  6
Continuous
 62
     7
100
AcDbLine
 10
68.9226606049
 20
198.2261620434
 30
0.0
 11
68.4771417777
 21
198.2261620434
 31
0.0
  0
ARC
  5
12A
330
70
100
AcDbEntity
  8
AP_592_703MM
  6
Continuous
 62
     7
100
AcDbCircle
 10
68.4771417777
 20
197.5261620434
 30
0.0
 40
0.6999999999999993
100
AcDbArc
 50
90.0
 51
270.0
  0
LINE
  5
12B
330
70
100
AcDbEntity
  8
AP_592_703MM
  6
Continuous
 62
     7
100
AcDbLine
 10
69.9379997371
 20
202.3759306975
 30
0.0
 11
69.860481414
 21
200.5410672696
 31
0.0
  0
ARC
  5
12C
330
70
100
AcDbEntity
  8
AP_592_703MM
  6
Continuous
 62
     7
100
AcDbCircle
 10
69.9443312086
 20
202.5257970128
 30
0.0
 40
0.150000000000004
100
AcDbArc
 50
87.5808373205
 51
267.5808373205
  0
LINE
  5
12D
330
70
100
AcDbEntity
  8
AP_592_703MM
  6
Continuous
 62
     7
100
AcDbLine
 10
70.459851706
 20
214.7281985669
 30
0.0
 11
69.9506626801
 21
202.6756633281
 31
0.0
  0
LINE
  5
12E
330
70
100
AcDbEntity
  8
AP_592_703MM
  6
Continuous
 62
     7
100
AcDbLine
 10
71.3106099284
 20
214.7281985669
 30
0.0
 11
70.459851706
 21
214.7281985669
 31
0.0
  0
LINE
  5
12F
330
70
100
AcDbEntity
  8
AP_592_703MM
  6
Continuous
 62
     7
100
AcDbLine
 10
70.8674408296
 20
204.2383590199
 30
0.0
 11
71.3106099284
 21
214.7281985669
 31
0.0
  0
LINE
  5
130
330
70
100
AcDbEntity
  8
AP_592_703MM
  6
Continuous
 62
     7
100
AcDbLine
 10
70.6071111848
 20
203.99913428
 30
0.0
 11
70.8674408296
 21
204.2383590199
 31
0.0
  0
LINE
  5
131
330
70
100
AcDbEntity
  8
AP_592_703MM
  6
Continuous
 62
     7
100
AcDbLine
 10
70.4804817552
 20
201.0018079736
 30
0.0
 11
70.6071111848
 21
203.99913428
 31
0.0
  0
LINE
  5
132
330
70
100
AcDbEntity
  8
AP_592_703MM
  6
Continuous
 62
     7
100
AcDbLine
 10
70.7106117272
 20
200.7513754561
 30
0.0
 11
70.4804817552
 21
201.0018079736
 31
0.0
  0
LINE
  5
133
330
70
100
AcDbEntity
  8
AP_592_703MM
  6
Continuous
 62
     7
100
AcDbLine
 10
70.7106117272
 20
192.4906456389
 30
0.0
 11
70.7106117272
 21
200.7513754561
 31
0.0
  0
ARC
  5
134
330
70
100
AcDbEntity
  8
AP_592_703MM
  6
Continuous
 62
     7
100
AcDbCircle
 10
68.4331920054
 20
192.4906456389
 30
0.0
 40
2.277419721799488
100
AcDbArc
 50
312.6597459593
 51
0.0
  0
ARC
  5
135
330
70
100
AcDbEntity
  8
AP_592_703MM
  6
Continuous
 62
     7
100
AcDbCircle
 10
65.9106108796
 20
195.228197171
 30
0.0
 40
5.999999999954547
100
AcDbArc
 50
226.0996692712
 51
312.6597459594
  0
ARC
  5
136
330
70
100
AcDbEntity
  8
AP_592_703MM
  6
Continuous
 62
     7
100
AcDbCircle
 10
63.1966422716
 20
192.4079990908
 30
0.0
 40
2.086032343338887
100
AcDbArc
 50
180.0
 51
226.0996692712
  0
LINE
  5
137
330
70
100
AcDbEntity
  8
AP_592_703MM
  6
Continuous
 62
     7
100
AcDbLine
 10
61.1106099282
 20
200.7513774135
 30
0.0
 11
61.1106099282
 21
192.4079990908
 31
0.0
  0
LINE
  5
138
330
70
100
AcDbEntity
  8
AP_592_703MM
  6
Continuous
 62
     7
100
AcDbLine
 10
61.3407381015
 20
201.0018079736
 30
0.0
 11
61.1106099282
 21
200.7513774135
 31
0.0
  0
LINE
  5
139
330
70
100
AcDbEntity
  8
AP_592_703MM
  6
Continuous
 62
     7
100
AcDbLine
 10
61.2141086719
 20
203.99913428
 30
0.0
 11
61.3407381015
 21
201.0018079736
 31
0.0
  0
LINE
  5
13A
330
70
100
AcDbEntity
  8
AP_592_703MM
  6
Continuous
 62
     7
100
AcDbLine
 10
60.9537790271
 20
204.2383590199
 30
0.0
 11
61.2141086719
 21
203.99913428
 31
0.0
  0
LINE
  5
13B
330
70
100
AcDbEntity
  8
AP_592_703MM
  6
Continuous
 62
     7
100
AcDbLine
 10
60.5106099282
 20
214.7281985669
 30
0.0
 11
60.9537790271
 21
204.2383590199
 31
0.0
  0
LINE
  5
13C
330
70
100
AcDbEntity
  8
AP_592_703MM
  6
Continuous
 62
     7
100
AcDbLine
 10
61.3613681505
 20
214.7281985669
 30
0.0
 11
60.5106099282
 21
214.7281985669
 31
0.0
  0
LINE
  5
13D
330
70
100
AcDbEntity
  8
AP_592_703MM
  6
Continuous
 62
     7
100
AcDbLine
 10
61.8705571764
 20
202.6756633281
 30
0.0
 11
61.3613681505
 21
214.7281985669
 31
0.0
  0
ARC
  5
13E
330
70
100
AcDbEntity
  8
AP_592_703MM
  6
Continuous
 62
     7
100
AcDbCircle
 10
61.8768886479
 20
202.5257970128
 30
0.0
 40
0.1500000000000005
100
AcDbArc
 50
272.4191626795
 51
92.4191626795
  0
LINE
  5
13F
330
70
100
AcDbEntity
  8
AP_592_703MM
  6
Continuous
 62
     7
100
AcDbLine
 10
61.9607384425
 20
200.5410672696
 30
0.0
 11
61.8832201193
 21
202.3759306975
 31
0.0
  0
LINE
  5
140
330
70
100
AcDbEntity
  8
AP_592_703MM
  6
Continuous
 62
     7
100
AcDbLine
 10
61.9607384425
 20
198.8764794115
 30
0.0
 11
61.9607384425
 21
200.5410672696
 31
0.0
  0
LINE
  5
141
330
70
100
AcDbEntity
  8
AP_592_703MM
  6
Continuous
 62
     7
100
AcDbLine
 10
62.9606099282
 20
198.8764794115
 30
0.0
 11
61.9607384425
 21
198.8764794115
 31
0.0
  0
LINE
  5
142
330
70
100
AcDbEntity
  8
AP_592_703MM
  6
Continuous
 62
     7
100
AcDbLine
 10
62.9606099282
 20
199.0264098032
 30
0.0
 11
62.9606099282
 21
198.8764794115
 31
0.0
  0
ARC
  5
143
330
70
100
AcDbEntity
  8
AP_592_703MM
  6
Continuous
 62
     7
100
AcDbCircle
 10
63.2106099282
 20
199.0264098032
 30
0.0
 40
0.2500000000000003
100
AcDbArc
 50
50.0
 51
180.0
  0
LINE
  5
144
330
70
100
AcDbEntity
  8
AP_592_703MM
  6
Continuous
 62
     7
100
AcDbLine
 10
64.2845430028
 20
198.4516247788
 30
0.0
 11
63.3713068306
 21
199.217920914
 31
0.0
  0
ARC
  5
145
330
70
100
AcDbEntity
  8
AP_592_703MM
  6
Continuous
 62
     7
100
AcDbCircle
 10
63.9631491979
 20
198.0686025572
 30
0.0
 40
0.5
100
AcDbArc
 50
0.0
 51
50.0
  0
LINE
  5
146
330
70
100
AcDbEntity
  8
AP_592_703MM
  6
Continuous
 62
     7
100
AcDbLine
 10
64.4631491979
 20
196.9829914684
 30
0.0
 11
64.4631491979
 21
198.0686025572
 31
0.0
  0
ARC
  5
147
330
70
100
AcDbEntity
  8
AP_592_703MM
  6
Continuous
 62
     7
100
AcDbCircle
 10
63.9631491979
 20
196.9829914684
 30
0.0
 40
0.5000000000000011
100
AcDbArc
 50
310.0
 51
0.0
  0
LINE
  5
148
330
70
100
AcDbEntity
  8
AP_592_703MM
  6
Continuous
 62
     7
100
AcDbLine
 10
63.3713068306
 20
195.8336731116
 30
0.0
 11
64.2845430028
 21
196.5999692468
 31
0.0
  0
ARC
  5
149
330
70
100
AcDbEntity
  8
AP_592_703MM
  6
Continuous
 62
     7
100
AcDbCircle
 10
63.2106099282
 20
196.0251842224
 30
0.0
 40
0.2499999999999999
100
AcDbArc
 50
179.9840394803
 51
310.0
  0
LINE
  5
14A
330
70
100
AcDbEntity
  8
AP_592_703MM
  6
Continuous
 62
     7
100
AcDbLine
 10
62.9560407229
 20
196.1751146141
 30
0.0
 11
62.9606099379
 21
196.0252538633
 31
0.0
  0
LINE
  5
14B
330
70
100
AcDbEntity
  8
AP_592_703MM
  6
Continuous
 62
     7
100
AcDbLine
 10
61.960738443
 20
196.1751146141
 30
0.0
 11
62.9560407229
 21
196.1751146141
 31
0.0
  0
LINE
  5
14C
330
70
100
AcDbEntity
  8
AP_592_703MM
  6
Continuous
 62
     7
100
AcDbLine
 10
61.960738443
 20
191.5425907019
 30
0.0
 11
61.960738443
 21
196.1751146141
 31
0.0
  0
ARC
  5
14D
330
70
100
AcDbEntity
  8
AP_592_703MM
  6
Continuous
 62
     7
100
AcDbCircle
 10
62.0165986967
 20
191.4869853239
 30
0.0
 40
0.0788183100623406
100
AcDbArc
 50
135.1310114424
 51
328.2595820011
  0
ARC
  5
14E
330
70
100
AcDbEntity
  8
AP_592_703MM
  6
Continuous
 62
     7
100
AcDbCircle
 10
65.9106099284
 20
189.0781985661
 30
0.0
 40
4.499999999999992
100
AcDbArc
 50
31.4905360333
 51
148.2595820011
  0
ARC
  5
14F
330
70
100
AcDbEntity
  8
AP_592_703MM
  6
Continuous
 62
     7
100
AcDbCircle
 10
69.8046211573
 20
191.4869853214
 30
0.0
 40
0.0812664661493969
100
AcDbArc
 50
225.7153387915
 51
46.5776002129
  0
LINE
  5
150
330
70
100
AcDbEntity
  8
AP_592_703MM
  6
Continuous
 62
     7
100
AcDbLine
 10
69.8604814111
 20
196.1751146141
 30
0.0
 11
69.8604814111
 21
191.5460096432
 31
0.0
  0
LINE
  5
151
330
70
100
AcDbEntity
  8
AP_592_703MM
  6
Continuous
 62
     7
100
AcDbLine
 10
68.8651791336
 20
196.1751146141
 30
0.0
 11
69.8604814111
 21
196.1751146141
 31
0.0
  0
LINE
  5
152
330
70
100
AcDbEntity
  8
AP_592_703MM
  6
Continuous
 62
     7
100
AcDbLine
 10
68.8606099185
 20
196.0252538633
 30
0.0
 11
68.8651791336
 21
196.1751146141
 31
0.0
  0
ARC
  5
153
330
70
100
AcDbEntity
  8
AP_592_703MM
  6
Continuous
 62
     7
100
AcDbCircle
 10
68.6106099282
 20
196.0251842224
 30
0.0
 40
0.2500000000000003
100
AcDbArc
 50
230.0
 51
0.0159605197
  0
LINE
  5
154
330
70
100
AcDbEntity
  8
AP_592_703MM
  6
Continuous
 62
     7
100
AcDbLine
 10
67.5366768537
 20
196.5999692468
 30
0.0
 11
68.4499130258
 21
195.8336731116
 31
0.0
  0
ARC
  5
155
330
70
100
AcDbEntity
  8
AP_592_703MM
  6
Continuous
 62
     7
100
AcDbCircle
 10
67.8580706585
 20
196.9829914684
 30
0.0
 40
0.5
100
AcDbArc
 50
180.0
 51
230.0
  0
LINE
  5
156
330
70
100
AcDbEntity
  8
AP_592_703MM
  6
Continuous
 62
     7
100
AcDbLine
 10
67.3580706585
 20
198.0686025572
 30
0.0
 11
67.3580706585
 21
196.9829914684
 31
0.0
  0
ARC
  5
157
330
70
100
AcDbEntity
  8
AP_592_703MM
  6
Continuous
 62
     7
100
AcDbCircle
 10
67.8580706585
 20
198.0686025572
 30
0.0
 40
0.4999999999999998
100
AcDbArc
 50
130.0
 51
180.0
  0
LINE
  5
158
330
70
100
AcDbEntity
  8
AP_592_703MM
  6
Continuous
 62
     7
100
AcDbLine
 10
68.4499130258
 20
199.217920914
 30
0.0
 11
67.5366768537
 21
198.4516247788
 31
0.0
  0
ARC
  5
159
330
70
100
AcDbEntity
  8
AP_592_703MM
  6
Continuous
 62
     7
100
AcDbCircle
 10
68.6106099282
 20
199.0264098032
 30
0.0
 40
0.2500000000000002
100
AcDbArc
 50
0.0
 51
130.0
  0
LINE
  5
15A
330
70
100
AcDbEntity
  8
AP_592_703MM
  6
Continuous
 62
     7
100
AcDbLine
 10
68.8606099282
 20
198.8764794115
 30
0.0
 11
68.8606099282
 21
199.0264098032
 31
0.0
  0
LINE
  5
15B
330
70
100
AcDbEntity
  8
AP_592_703MM
  6
Continuous
 62
     7
100
AcDbLine
 10
69.860481414
 20
198.8764794115
 30
0.0
 11
68.8606099282
 21
198.8764794115
 31
0.0
  0
LINE
  5
15C
330
70
100
AcDbEntity
  8
AP_592_703MM
  6
Continuous
 62
     7
100
AcDbLine
 10
69.860481414
 20
200.5410672696
 30
0.0
 11
69.860481414
 21
198.8764794115
 31
0.0
  0
ENDBLK
  5
15E
330
70
100
AcDbEntity
  8
0
100
AcDbBlockEnd
  0
BLOCK
  5
161
330
160
100
AcDbEntity
  8
0
100
AcDbBlockBegin
  2
_OBLIQUE
 70
     0
 10
0.0
 20
0.0
 30
0.0
  3
_OBLIQUE
  1
_OBLIQUE
  0
LINE
  5
163
330
160
100
AcDbEntity
  8
0
  6
ByBlock
 62
     0
370
    -2
100
AcDbLine
 10
-0.5
 20
-0.5
 30
0.0
 11
0.5
 21
0.5
 31
0.0
  0
ENDBLK
  5
162
330
160
100
AcDbEntity
  8
0
100
AcDbBlockEnd
  0
BLOCK
  5
165
330
164
100
AcDbEntity
  8
0
100
AcDbBlockBegin
  2
_DOT
 70
     0
 10
0.0
 20
0.0
 30
0.0
  3
_DOT
  1
_DOT
  0
POLYLINE
  5
167
330
164
100
AcDbEntity
  8
0
  6
ByBlock
 62
     0
100
AcDb2dPolyline
 66
     1
 10
0.0
 20
0.0
 30
0.0
 70
     1
 40
0.5
 41
0.5
  0
VERTEX
  5
169
330
167
100
AcDbEntity
  8
0
  6
ByBlock
 62
     0
100
AcDbVertex
100
AcDb2dVertex
 10
-0.25
 20
0.0
 30
0.0
 42
1.0
  0
VERTEX
  5
16A
330
167
100
AcDbEntity
  8
0
  6
ByBlock
 62
     0
100
AcDbVertex
100
AcDb2dVertex
 10
0.25
 20
0.0
 30
0.0
 42
1.0
  0
SEQEND
  5
16B
330
167
100
AcDbEntity
  8
0
  6
ByBlock
 62
     0
  0
LINE
  5
168
330
164
100
AcDbEntity
  8
0
  6
ByBlock
 62
     0
370
    -2
100
AcDbLine
 10
-0.5
 20
0.0
 30
0.0
 11
-1.0
 21
0.0
 31
0.0
  0
ENDBLK
  5
166
330
164
100
AcDbEntity
  8
0
100
AcDbBlockEnd
  0
BLOCK
  5
170
330
16C
100
AcDbEntity
  8
0
100
AcDbBlockBegin
  2
_SE_OPEN
 70
     0
 10
0.0
 20
0.0
 30
0.0
  3
_SE_OPEN
  1
_SE_OPEN
  0
LINE
  5
16D
330
16C
100
AcDbEntity
  8
0
 62
     0
100
AcDbLine
 10
0.0
 20
0.0
 30
0.0
 11
-1.0
 21
-0.1665
 31
0.0
  0
LINE
  5
16E
330
16C
100
AcDbEntity
  8
0
 62
     0
100
AcDbLine
 10
-1.0
 20
0.1665
 30
0.0
 11
0.0
 21
0.0
 31
0.0
  0
LINE
  5
16F
330
16C
100
AcDbEntity
  8
0
 62
     0
100
AcDbLine
 10
0.0
 20
0.0
 30
0.0
 11
-1.0
 21
0.0
 31
0.0
  0
ENDBLK
  5
171
330
16C
100
AcDbEntity
  8
0
100
AcDbBlockEnd
  0
BLOCK
  5
17C
330
175
100
AcDbEntity
  8
0
100
AcDbBlockBegin
  2
DMBLK17
 70
     0
 10
0.0
 20
0.0
 30
0.0
  3
DMBLK17
  1
DMBLK17
  0
LWPOLYLINE
  5
176
330
175
100
AcDbEntity
  8
Standard
  6
Continuous
 62
     7
100
AcDbPolyline
 90
        3
 70
     0
 43
0.0
 10
63.2606098445
 20
239.7896072419
 10
59.5106099283
 20
240.4146072279
 10
63.2606098445
 20
241.039607214
  0
LWPOLYLINE
  5
177
330
175
100
AcDbEntity
  8
Standard
  6
Continuous
 62
     7
100
AcDbPolyline
 90
        3
 70
     0
 43
0.0
 10
68.5606096888
 20
239.7896072419
 10
72.310609605
 20
240.4146072279
 10
68.5606096888
 20
241.039607214
  0
LINE
  5
178
330
175
100
AcDbEntity
  8
Standard
  6
Continuous
 62
     7
100
AcDbLine
 10
59.5106099283
 20
219.4785636442
 30
0.0
 11
59.5106099283
 21
241.6646072
 31
0.0
  0
LINE
  5
179
330
175
100
AcDbEntity
  8
Standard
  6
Continuous
 62
     7
100
AcDbLine
 10
72.3106099283
 20
219.4785636442
 30
0.0
 11
72.3106099283
 21
241.6646072
 31
0.0
  0
LINE
  5
17A
330
175
100
AcDbEntity
  8
Standard
  6
Continuous
 62
     7
100
AcDbLine
 10
59.5106099283
 20
240.4146072279
 30
0.0
 11
72.310609605
 21
240.4146072279
 31
0.0
  0
TEXT
  5
17B
330
175
100
AcDbEntity
  8
Standard
  6
Continuous
 62
     7
100
AcDbText
 10
62.4866967232
 20
241.0396072279
 30
0.0
 40
2.5
  1
12,8
  7
SEACAD_Arial
 11
62.4866967232
 21
243.5396072279
 31
0.0
100
AcDbText
 73
     3
  0
ENDBLK
  5
17D
330
175
100
AcDbEntity
  8
0
100
AcDbBlockEnd
  0
BLOCK
  5
186
330
17F
100
AcDbEntity
  8
0
100
AcDbBlockBegin
  2
DMBLK18
 70
     0
 10
0.0
 20
0.0
 30
0.0
  3
DMBLK18
  1
DMBLK18
  0
LWPOLYLINE
  5
180
330
17F
100
AcDbEntity
  8
Standard
  6
Continuous
 62
     7
100
AcDbPolyline
 90
        3
 70
     0
 43
0.0
 10
77.7186204214
 20
215.9785637215
 10
78.3436204074
 20
219.7285636376
 10
78.9686203934
 20
215.9785637215
  0
LWPOLYLINE
  5
181
330
17F
100
AcDbEntity
  8
Standard
  6
Continuous
 62
     7
100
AcDbPolyline
 90
        3
 70
     0
 43
0.0
 10
77.7186204214
 20
193.4785642244
 10
78.3436204074
 20
189.7285643082
 10
78.9686203934
 20
193.4785642244
  0
LINE
  5
182
330
17F
100
AcDbEntity
  8
Standard
  6
Continuous
 62
     7
100
AcDbLine
 10
72.0606099349
 20
219.7285636376
 30
0.0
 11
79.5936203795
 21
219.7285636376
 31
0.0
  0
LINE
  5
183
330
17F
100
AcDbEntity
  8
Standard
  6
Continuous
 62
     7
100
AcDbLine
 10
72.8606099349
 20
189.7285636376
 30
0.0
 11
79.5936203795
 21
189.7285636376
 31
0.0
  0
LINE
  5
184
330
17F
100
AcDbEntity
  8
Standard
  6
Continuous
 62
     7
100
AcDbLine
 10
78.3436204074
 20
219.7285636376
 30
0.0
 11
78.3436204074
 21
189.7285643082
 31
0.0
  0
TEXT
  5
185
330
17F
100
AcDbEntity
  8
Standard
  6
Continuous
 62
     7
100
AcDbText
 10
77.7186204074
 20
202.7720422338
 30
0.0
 40
2.5
  1
30
 50
90.0
  7
SEACAD_Arial
 11
75.2186204074
 21
202.7720422338
 31
0.0
100
AcDbText
 73
     3
  0
ENDBLK
  5
187
330
17F
100
AcDbEntity
  8
0
100
AcDbBlockEnd
  0
BLOCK
  5
24B
330
188
100
AcDbEntity
  8
0
100
AcDbBlockBegin
  2
SE1
 70
     0
 10
0.0
 20
0.0
 30
0.0
  3
SE1
  1
SE1
  0
ARC
  5
18A
330
188
100
AcDbEntity
  8
AP_563_708MM
  6
Continuous
 62
     7
100
AcDbCircle
 10
65.9797832642
 20
112.775672607
 30
0.0
 40
0.5000000000000004
100
AcDbArc
 50
90.0
 51
180.0
  0
LINE
  5
18B
330
188
100
AcDbEntity
  8
AP_563_708MM
  6
Continuous
 62
     7
100
AcDbLine
 10
66.0797832642
 20
113.275672607
 30
0.0
 11
65.9797832642
 21
113.275672607
 31
0.0
  0
ARC
  5
18C
330
188
100
AcDbEntity
  8
AP_563_708MM
  6
Continuous
 62
     7
100
AcDbCircle
 10
66.0797832642
 20
113.075672607
 30
0.0
 40
0.1999999999999999
100
AcDbArc
 50
0.0
 51
90.0
  0
LINE
  5
18D
330
188
100
AcDbEntity
  8
AP_563_708MM
  6
Continuous
 62
     7
100
AcDbLine
 10
66.2797832642
 20
112.1561621991
 30
0.0
 11
66.2797832642
 21
113.075672607
 31
0.0
  0
LINE
  5
18E
330
188
100
AcDbEntity
  8
AP_563_708MM
  6
Continuous
 62
     7
100
AcDbLine
 10
66.038361908
 20
111.9147408429
 30
0.0
 11
66.2797832642
 21
112.1561621991
 31
0.0
  0
ARC
  5
18F
330
188
100
AcDbEntity
  8
AP_563_708MM
  6
Continuous
 62
     7
100
AcDbCircle
 10
66.1797832642
 20
111.7733194866
 30
0.0
 40
0.2000000000000001
100
AcDbArc
 50
135.0
 51
225.0
  0
LINE
  5
190
330
188
100
AcDbEntity
  8
AP_563_708MM
  6
Continuous
 62
     7
100
AcDbLine
 10
66.2797832642
 20
111.3904767742
 30
0.0
 11
66.038361908
 21
111.6318981304
 31
0.0
  0
LINE
  5
191
330
188
100
AcDbEntity
  8
AP_563_708MM
  6
Continuous
 62
     7
100
AcDbLine
 10
66.2797832642
 20
111.0756724804
 30
0.0
 11
66.2797832642
 21
111.3904767742
 31
0.0
  0
ARC
  5
192
330
188
100
AcDbEntity
  8
AP_563_708MM
  6
Continuous
 62
     7
100
AcDbCircle
 10
67.4297832642
 20
111.0756724804
 30
0.0
 40
1.150000000000184
100
AcDbArc
 50
180.0
 51
0.0
  0
LINE
  5
193
330
188
100
AcDbEntity
  8
AP_563_708MM
  6
Continuous
 62
     7
100
AcDbLine
 10
63.9797832642
 20
105.3732221334
 30
0.0
 11
70.8797832642
 21
105.3732221334
 31
0.0
  0
ARC
  5
194
330
188
100
AcDbEntity
  8
AP_563_708MM
  6
Continuous
 62
     7
100
AcDbCircle
 10
63.9797832642
 20
105.8732221334
 30
0.0
 40
0.5000000000000004
100
AcDbArc
 50
181.2990872952
 51
270.0
  0
LINE
  5
195
330
188
100
AcDbEntity
  8
AP_563_708MM
  6
Continuous
 62
     7
100
AcDbLine
 10
63.8787844869
 20
107.0222234569
 30
0.0
 11
63.4799117789
 21
106.6233507489
 31
0.0
  0
ARC
  5
196
330
188
100
AcDbEntity
  8
AP_563_708MM
  6
Continuous
 62
     7
100
AcDbCircle
 10
64.2797832642
 20
106.9232222342
 30
0.0
 40
0.200000000000001
100
AcDbArc
 50
9.0952669411
 51
29.6701534813
  0
LINE
  5
197
330
188
100
AcDbEntity
  8
AP_563_708MM
  6
Continuous
 62
     7
100
AcDbLine
 10
64.4797832642
 20
106.3732221819
 30
0.0
 11
64.4797832642
 21
106.8722930652
 31
0.0
  0
LINE
  5
198
330
188
100
AcDbEntity
  8
AP_563_708MM
  6
Continuous
 62
     7
100
AcDbLine
 10
66.8297832642
 20
106.3732224143
 30
0.0
 11
64.4797832642
 21
106.3732221819
 31
0.0
  0
LINE
  5
199
330
188
100
AcDbEntity
  8
AP_563_708MM
  6
Continuous
 62
     7
100
AcDbLine
 10
66.8297832642
 20
109.0114305965
 30
0.0
 11
66.8297832642
 21
106.3732224143
 31
0.0
  0
ARC
  5
19A
330
188
100
AcDbEntity
  8
AP_563_708MM
  6
Continuous
 62
     7
100
AcDbCircle
 10
67.4246692538
 20
111.0774922266
 30
0.0
 40
2.149999999999999
100
AcDbArc
 50
199.1184497513
 51
253.9371784822
  0
LINE
  5
19B
330
188
100
AcDbEntity
  8
AP_563_708MM
  6
Continuous
 62
     7
100
AcDbLine
 10
64.4797832642
 20
110.3733195043
 30
0.0
 11
65.3932557372
 21
110.373319574
 31
0.0
  0
LINE
  5
19C
330
188
100
AcDbEntity
  8
AP_563_708MM
  6
Continuous
 62
     7
100
AcDbLine
 10
64.4797832642
 20
109.873518646
 30
0.0
 11
64.4797832642
 21
110.3733195043
 31
0.0
  0
ARC
  5
19D
330
188
100
AcDbEntity
  8
AP_563_708MM
  6
Continuous
 62
     7
100
AcDbCircle
 10
64.2797832642
 20
109.8233195382
 30
0.0
 40
0.2000000000000005
100
AcDbArc
 50
330.0888508289
 51
0.0
  0
LINE
  5
19E
330
188
100
AcDbEntity
  8
AP_563_708MM
  6
Continuous
 62
     7
100
AcDbLine
 10
63.4799117784
 20
110.123191024
 30
0.0
 11
63.8795145481
 21
109.7235882543
 31
0.0
  0
LINE
  5
19F
330
188
100
AcDbEntity
  8
AP_563_708MM
  6
Continuous
 62
     7
100
AcDbLine
 10
64.4797832642
 20
111.3733194866
 30
0.0
 11
64.4797832642
 21
114.0756724804
 31
0.0
  0
LINE
  5
1A0
330
188
100
AcDbEntity
  8
AP_563_708MM
  6
Continuous
 62
     7
100
AcDbLine
 10
65.4797832642
 20
111.3733194866
 30
0.0
 11
64.4797832642
 21
111.3733194866
 31
0.0
  0
LINE
  5
1A1
330
188
100
AcDbEntity
  8
AP_563_708MM
  6
Continuous
 62
     7
100
AcDbLine
 10
65.4797832642
 20
112.775672607
 30
0.0
 11
65.4797832642
 21
111.3733194866
 31
0.0
  0
LINE
  5
1A2
330
188
100
AcDbEntity
  8
AP_563_708MM
  6
Continuous
 62
     7
100
AcDbLine
 10
70.3797832642
 20
111.3733194866
 30
0.0
 11
69.3797832642
 21
111.3733194866
 31
0.0
  0
LINE
  5
1A3
330
188
100
AcDbEntity
  8
AP_563_708MM
  6
Continuous
 62
     7
100
AcDbLine
 10
69.3797832642
 20
111.3733194866
 30
0.0
 11
69.3797832642
 21
112.775672607
 31
0.0
  0
ARC
  5
1A4
330
188
100
AcDbEntity
  8
AP_563_708MM
  6
Continuous
 62
     7
100
AcDbCircle
 10
68.8797832642
 20
112.775672607
 30
0.0
 40
0.5
100
AcDbArc
 50
0.0
 51
90.0
  0
LINE
  5
1A5
330
188
100
AcDbEntity
  8
AP_563_708MM
  6
Continuous
 62
     7
100
AcDbLine
 10
68.8797832642
 20
113.275672607
 30
0.0
 11
68.7797832642
 21
113.275672607
 31
0.0
  0
ARC
  5
1A6
330
188
100
AcDbEntity
  8
AP_563_708MM
  6
Continuous
 62
     7
100
AcDbCircle
 10
68.7797832642
 20
113.075672607
 30
0.0
 40
0.2000000000000001
100
AcDbArc
 50
90.0
 51
180.0
  0
LINE
  5
1A7
330
188
100
AcDbEntity
  8
AP_563_708MM
  6
Continuous
 62
     7
100
AcDbLine
 10
68.5797832642
 20
113.075672607
 30
0.0
 11
68.5797832642
 21
112.1561621991
 31
0.0
  0
LINE
  5
1A8
330
188
100
AcDbEntity
  8
AP_563_708MM
  6
Continuous
 62
     7
100
AcDbLine
 10
68.5797832642
 20
112.1561621991
 30
0.0
 11
68.8212046204
 21
111.9147408429
 31
0.0
  0
ARC
  5
1A9
330
188
100
AcDbEntity
  8
AP_563_708MM
  6
Continuous
 62
     7
100
AcDbCircle
 10
68.6797832642
 20
111.7733194866
 30
0.0
 40
0.2000000000000003
100
AcDbArc
 50
315.0
 51
45.0
  0
LINE
  5
1AA
330
188
100
AcDbEntity
  8
AP_563_708MM
  6
Continuous
 62
     7
100
AcDbLine
 10
68.8212046204
 20
111.6318981304
 30
0.0
 11
68.5797832642
 21
111.3904767742
 31
0.0
  0
LINE
  5
1AB
330
188
100
AcDbEntity
  8
AP_563_708MM
  6
Continuous
 62
     7
100
AcDbLine
 10
68.5797832642
 20
111.3904767742
 30
0.0
 11
68.5797832642
 21
111.0756724804
 31
0.0
  0
ARC
  5
1AC
330
188
100
AcDbEntity
  8
AP_563_708MM
  6
Continuous
 62
     7
100
AcDbCircle
 10
70.8797832642
 20
105.8732221334
 30
0.0
 40
0.5000000000000004
100
AcDbArc
 50
270.0
 51
358.7008998379
  0
LINE
  5
1AD
330
188
100
AcDbEntity
  8
AP_563_708MM
  6
Continuous
 62
     7
100
AcDbLine
 10
71.379654747
 20
106.6233507514
 30
0.0
 11
70.9807820415
 21
107.0222234569
 31
0.0
  0
ARC
  5
1AE
330
188
100
AcDbEntity
  8
AP_563_708MM
  6
Continuous
 62
     7
100
AcDbCircle
 10
70.5797832642
 20
106.9232222342
 30
0.0
 40
0.2000000000000005
100
AcDbArc
 50
150.3298465187
 51
170.9047335543
  0
LINE
  5
1AF
330
188
100
AcDbEntity
  8
AP_563_708MM
  6
Continuous
 62
     7
100
AcDbLine
 10
70.3797832642
 20
106.8722930652
 30
0.0
 11
70.3797832642
 21
106.3732221819
 31
0.0
  0
LINE
  5
1B0
330
188
100
AcDbEntity
  8
AP_563_708MM
  6
Continuous
 62
     7
100
AcDbLine
 10
70.3797832642
 20
106.3732221819
 30
0.0
 11
68.0297832642
 21
106.3732224143
 31
0.0
  0
LINE
  5
1B1
330
188
100
AcDbEntity
  8
AP_563_708MM
  6
Continuous
 62
     7
100
AcDbLine
 10
68.0297832642
 20
106.3732224143
 30
0.0
 11
68.0297832642
 21
109.0114305965
 31
0.0
  0
ARC
  5
1B2
330
188
100
AcDbEntity
  8
AP_563_708MM
  6
Continuous
 62
     7
100
AcDbCircle
 10
67.4348972746
 20
111.0774922266
 30
0.0
 40
2.150000000000001
100
AcDbArc
 50
286.0628215178
 51
340.8815502487
  0
LINE
  5
1B3
330
188
100
AcDbEntity
  8
AP_563_708MM
  6
Continuous
 62
     7
100
AcDbLine
 10
69.4663107912
 20
110.373319574
 30
0.0
 11
70.3797832642
 21
110.3733195043
 31
0.0
  0
LINE
  5
1B4
330
188
100
AcDbEntity
  8
AP_563_708MM
  6
Continuous
 62
     7
100
AcDbLine
 10
70.3797832642
 20
110.3733195043
 30
0.0
 11
70.3797832642
 21
109.873518646
 31
0.0
  0
ARC
  5
1B5
330
188
100
AcDbEntity
  8
AP_563_708MM
  6
Continuous
 62
     7
100
AcDbCircle
 10
70.5797832642
 20
109.8233195382
 30
0.0
 40
0.2000000000000001
100
AcDbArc
 50
180.0
 51
209.9111491711
  0
LINE
  5
1B6
330
188
100
AcDbEntity
  8
AP_563_708MM
  6
Continuous
 62
     7
100
AcDbLine
 10
70.9800519803
 20
109.7235882543
 30
0.0
 11
71.3796547498
 21
110.1231910238
 31
0.0
  0
LINE
  5
1B7
330
188
100
AcDbEntity
  8
AP_563_708MM
  6
Continuous
 62
     7
100
AcDbLine
 10
71.3797832642
 20
111.3912180555
 30
0.0
 11
71.3797832642
 21
113.2484440252
 31
0.0
  0
LINE
  5
1B8
330
188
100
AcDbEntity
  8
AP_563_708MM
  6
Continuous
 62
     7
100
AcDbLine
 10
71.3797832642
 20
113.497367686
 30
0.0
 11
71.3797832642
 21
114.0756724804
 31
0.0
  0
LINE
  5
1B9
330
188
100
AcDbEntity
  8
AP_563_708MM
  6
Continuous
 62
     7
100
AcDbLine
 10
70.3797832642
 20
114.0756724804
 30
0.0
 11
70.3797832642
 21
111.3733194866
 31
0.0
  0
LINE
  5
1BA
330
188
100
AcDbEntity
  8
AP_563_708MM
  6
Continuous
 62
     7
100
AcDbLine
 10
70.3797832642
 20
114.0756724804
 30
0.0
 11
70.3797832642
 21
114.5756724804
 31
0.0
  0
LINE
  5
1BB
330
188
100
AcDbEntity
  8
AP_563_708MM
  6
Continuous
 62
     7
100
AcDbLine
 10
63.4797832642
 20
114.0756724804
 30
0.0
 11
63.4797832642
 21
113.4973676859
 31
0.0
  0
LINE
  5
1BC
330
188
100
AcDbEntity
  8
AP_563_708MM
  6
Continuous
 62
     7
100
AcDbLine
 10
63.4797832642
 20
113.2484440253
 30
0.0
 11
63.4797832642
 21
111.3912180503
 31
0.0
  0
LINE
  5
1BD
330
188
100
AcDbEntity
  8
AP_563_708MM
  6
Continuous
 62
     7
100
AcDbLine
 10
64.4797832642
 20
114.0756724804
 30
0.0
 11
63.4797832642
 21
114.0756724804
 31
0.0
  0
LINE
  5
1BE
330
188
100
AcDbEntity
  8
AP_563_708MM
  6
Continuous
 62
     7
100
AcDbLine
 10
71.3797832642
 20
114.0756724804
 30
0.0
 11
70.3797832642
 21
114.0756724804
 31
0.0
  0
ARC
  5
1BF
330
188
100
AcDbEntity
  8
AP_563_708MM
  6
Continuous
 62
     7
100
AcDbCircle
 10
63.9797832642
 20
124.5756724804
 30
0.0
 40
0.5000000000000004
100
AcDbArc
 50
72.5423968763
 51
90.0
  0
LINE
  5
1C0
330
188
100
AcDbEntity
  8
AP_563_708MM
  6
Continuous
 62
     7
100
AcDbLine
 10
64.4797832642
 20
114.5756724804
 30
0.0
 11
64.4797832642
 21
114.0756724804
 31
0.0
  0
LINE
  5
1C1
330
188
100
AcDbEntity
  8
AP_563_708MM
  6
Continuous
 62
     7
100
AcDbLine
 10
63.4797832642
 20
114.0756724804
 30
0.0
 11
63.4797832642
 21
125.0756724804
 31
0.0
  0
LINE
  5
1C2
330
188
100
AcDbEntity
  8
AP_563_708MM
  6
Continuous
 62
     7
100
AcDbLine
 10
63.4797832642
 20
125.0756724804
 30
0.0
 11
63.9797832642
 21
125.0756724804
 31
0.0
  0
LINE
  5
1C3
330
188
100
AcDbEntity
  8
AP_563_708MM
  6
Continuous
 62
     7
100
AcDbLine
 10
70.8797832642
 20
125.0756724804
 30
0.0
 11
71.3797832642
 21
125.0756724804
 31
0.0
  0
LINE
  5
1C4
330
188
100
AcDbEntity
  8
AP_563_708MM
  6
Continuous
 62
     7
100
AcDbLine
 10
71.3797832642
 20
125.0756724804
 30
0.0
 11
71.3797832642
 21
114.0756724804
 31
0.0
  0
ARC
  5
1C5
330
188
100
AcDbEntity
  8
AP_563_708MM
  6
Continuous
 62
     7
100
AcDbCircle
 10
70.8797832642
 20
124.5756724804
 30
0.0
 40
0.5000000000000004
100
AcDbArc
 50
90.0
 51
107.4576031237
  0
ARC
  5
1C6
330
188
100
AcDbEntity
  8
AF_079_EINBAU
  6
Continuous
 62
     7
100
AcDbCircle
 10
67.4297832642
 20
112.0756724804
 30
0.0
 40
1.0
100
AcDbArc
 50
180.0
 51
0.0
  0
LINE
  5
1C7
330
188
100
AcDbEntity
  8
AF_079_EINBAU
  6
Continuous
 62
     7
100
AcDbLine
 10
68.4297832642
 20
112.0756724804
 30
0.0
 11
68.4297832642
 21
112.0917406965
 31
0.0
  0
LINE
  5
1C8
330
188
100
AcDbEntity
  8
AF_079_EINBAU
  6
Continuous
 62
     7
100
AcDbLine
 10
66.4297832642
 20
112.0917406965
 30
0.0
 11
66.4297832642
 21
112.0756724804
 31
0.0
  0
LINE
  5
1C9
330
188
100
AcDbEntity
  8
AF_079_EINBAU
  6
Continuous
 62
     7
100
AcDbLine
 10
66.4297832642
 20
114.5756724804
 30
0.0
 11
66.4297832642
 21
112.0917406965
 31
0.0
  0
LINE
  5
1CA
330
188
100
AcDbEntity
  8
AF_079_EINBAU
  6
Continuous
 62
     7
100
AcDbLine
 10
68.4297832642
 20
112.0917406965
 30
0.0
 11
68.4297832642
 21
114.5756724804
 31
0.0
  0
ARC
  5
1CB
330
188
100
AcDbEntity
  8
AF_080
  6
Continuous
 62
     7
100
AcDbCircle
 10
70.431678001
 20
114.27289562
 30
0.0
 40
0.5999999999999999
100
AcDbArc
 50
180.0
 51
265.0382182102
  0
LINE
  5
1CC
330
188
100
AcDbEntity
  8
AF_080
  6
Continuous
 62
     7
100
AcDbLine
 10
69.831678001
 20
114.5756724804
 30
0.0
 11
69.831678001
 21
114.27289562
 31
0.0
  0
ARC
  5
1CD
330
188
100
AcDbEntity
  8
AF_080
  6
Continuous
 62
     7
100
AcDbCircle
 10
64.4278885274
 20
114.27289562
 30
0.0
 40
0.5999999999999999
100
AcDbArc
 50
274.9617817898
 51
0.0
  0
LINE
  5
1CE
330
188
100
AcDbEntity
  8
AF_080
  6
Continuous
 62
     7
100
AcDbLine
 10
65.0278885274
 20
114.27289562
 30
0.0
 11
65.0278885274
 21
114.5756724804
 31
0.0
  0
LINE
  5
1CF
330
188
100
AcDbEntity
  8
AP_562_M
  6
Continuous
 62
     7
100
AcDbLine
 10
72.8297832642
 20
130.5756724804
 30
0.0
 11
62.0297832642
 21
130.5756724804
 31
0.0
  0
LINE
  5
1D0
330
188
100
AcDbEntity
  8
AP_562_M
  6
Continuous
 62
     7
100
AcDbLine
 10
62.6797832642
 20
127.2756724804
 30
0.0
 11
62.6797832642
 21
128.0756724804
 31
0.0
  0
ARC
  5
1D1
330
188
100
AcDbEntity
  8
AP_562_M
  6
Continuous
 62
     7
100
AcDbCircle
 10
62.6797832642
 20
126.9256724804
 30
0.0
 40
0.3499999999999996
100
AcDbArc
 50
90.0
 51
270.0
  0
LINE
  5
1D2
330
188
100
AcDbEntity
  8
AP_562_M
  6
Continuous
 62
     7
100
AcDbLine
 10
62.2297832642
 20
125.5756724804
 30
0.0
 11
63.7297832642
 21
125.5756724804
 31
0.0
  0
ARC
  5
1D3
330
188
100
AcDbEntity
  8
AP_562_M
  6
Continuous
 62
     7
100
AcDbCircle
 10
62.2297832642
 20
125.3756724804
 30
0.0
 40
0.1999999999999988
100
AcDbArc
 50
165.5512048964
 51
180.0
  0
ARC
  5
1D4
330
188
100
AcDbEntity
  8
AP_562_M
  6
HIDDEN2
 62
     7
100
AcDbCircle
 10
62.2297832642
 20
125.3756724804
 30
0.0
 40
0.1999999999999988
100
AcDbArc
 50
93.4623999835
 51
165.5512048964
  0
ARC
  5
1D5
330
188
100
AcDbEntity
  8
AP_562_M
  6
Continuous
 62
     7
100
AcDbCircle
 10
62.2297832642
 20
125.3756724804
 30
0.0
 40
0.1999999999999988
100
AcDbArc
 50
90.0
 51
93.4623999835
  0
LINE
  5
1D6
330
188
100
AcDbEntity
  8
AP_562_M
  6
Continuous
 62
     7
100
AcDbLine
 10
62.0297832642
 20
100.7756724804
 30
0.0
 11
62.0297832642
 21
125.3756724804
 31
0.0
  0
ARC
  5
1D7
330
188
100
AcDbEntity
  8
AP_562_M
  6
Continuous
 62
     7
100
AcDbCircle
 10
61.8297832642
 20
100.7756724804
 30
0.0
 40
0.1999999999999988
100
AcDbArc
 50
270.0
 51
0.0
  0
LINE
  5
1D8
330
188
100
AcDbEntity
  8
AP_562_M
  6
Continuous
 62
     7
100
AcDbLine
 10
61.2297832642
 20
100.5756724804
 30
0.0
 11
61.8297832642
 21
100.5756724804
 31
0.0
  0
ARC
  5
1D9
330
188
100
AcDbEntity
  8
AP_562_M
  6
Continuous
 62
     7
100
AcDbCircle
 10
61.2297832642
 20
100.7756724804
 30
0.0
 40
0.1999999999999997
100
AcDbArc
 50
180.0
 51
270.0
  0
LINE
  5
1DA
330
188
100
AcDbEntity
  8
AP_562_M
  6
Continuous
 62
     7
100
AcDbLine
 10
61.0297832642
 20
129.5756724804
 30
0.0
 11
61.0297832642
 21
100.7756724804
 31
0.0
  0
ARC
  5
1DB
330
188
100
AcDbEntity
  8
AP_562_M
  6
Continuous
 62
     7
100
AcDbCircle
 10
62.0297832642
 20
129.5756724804
 30
0.0
 40
1.000000000000001
100
AcDbArc
 50
90.0
 51
180.0
  0
LINE
  5
1DC
330
188
100
AcDbEntity
  8
AP_562_M
  6
Continuous
 62
     7
100
AcDbLine
 10
62.2297832642
 20
129.5756724804
 30
0.0
 11
72.6297832642
 21
129.5756724804
 31
0.0
  0
ARC
  5
1DD
330
188
100
AcDbEntity
  8
AP_562_M
  6
Continuous
 62
     7
100
AcDbCircle
 10
62.2297832642
 20
129.3756724804
 30
0.0
 40
0.1999999999999997
100
AcDbArc
 50
90.0
 51
180.0
  0
LINE
  5
1DE
330
188
100
AcDbEntity
  8
AP_562_M
  6
Continuous
 62
     7
100
AcDbLine
 10
63.9297832642
 20
125.7756724804
 30
0.0
 11
63.9297832642
 21
126.3756724804
 31
0.0
  0
ARC
  5
1DF
330
188
100
AcDbEntity
  8
AP_562_M
  6
Continuous
 62
     7
100
AcDbCircle
 10
63.7297832642
 20
125.7756724804
 30
0.0
 40
0.1999999999999988
100
AcDbArc
 50
270.0
 51
0.0
  0
LINE
  5
1E0
330
188
100
AcDbEntity
  8
AP_562_M
  6
Continuous
 62
     7
100
AcDbLine
 10
63.7297832642
 20
126.5756724804
 30
0.0
 11
62.6797832642
 21
126.5756724804
 31
0.0
  0
ARC
  5
1E1
330
188
100
AcDbEntity
  8
AP_562_M
  6
Continuous
 62
     7
100
AcDbCircle
 10
63.7297832642
 20
126.3756724804
 30
0.0
 40
0.2000000000000001
100
AcDbArc
 50
0.0
 51
90.0
  0
LINE
  5
1E2
330
188
100
AcDbEntity
  8
AP_562_M
  6
Continuous
 62
     7
100
AcDbLine
 10
62.4797832642
 20
128.2756724804
 30
0.0
 11
62.2297832642
 21
128.2756724804
 31
0.0
  0
ARC
  5
1E3
330
188
100
AcDbEntity
  8
AP_562_M
  6
Continuous
 62
     7
100
AcDbCircle
 10
62.4797832642
 20
128.0756724804
 30
0.0
 40
0.1999999999999997
100
AcDbArc
 50
0.0
 51
90.0
  0
LINE
  5
1E4
330
188
100
AcDbEntity
  8
AP_562_M
  6
Continuous
 62
     7
100
AcDbLine
 10
62.0297832642
 20
128.4756724804
 30
0.0
 11
62.0297832642
 21
129.3756724804
 31
0.0
  0
ARC
  5
1E5
330
188
100
AcDbEntity
  8
AP_562_M
  6
Continuous
 62
     7
100
AcDbCircle
 10
62.2297832642
 20
128.4756724804
 30
0.0
 40
0.2000000000000005
100
AcDbArc
 50
180.0
 51
270.0
  0
ARC
  5
1E6
330
188
100
AcDbEntity
  8
AP_562_M
  6
Continuous
 62
     7
100
AcDbCircle
 10
72.8297832642
 20
129.5756724804
 30
0.0
 40
1.000000000000001
100
AcDbArc
 50
0.0
 51
90.0
  0
LINE
  5
1E7
330
188
100
AcDbEntity
  8
AP_562_M
  6
Continuous
 62
     7
100
AcDbLine
 10
73.8297832642
 20
129.5756724804
 30
0.0
 11
73.8297832642
 21
100.7756724804
 31
0.0
  0
ARC
  5
1E8
330
188
100
AcDbEntity
  8
AP_562_M
  6
Continuous
 62
     7
100
AcDbCircle
 10
73.6297832642
 20
100.7756724804
 30
0.0
 40
0.1999999999999997
100
AcDbArc
 50
270.0
 51
0.0
  0
LINE
  5
1E9
330
188
100
AcDbEntity
  8
AP_562_M
  6
Continuous
 62
     7
100
AcDbLine
 10
73.6297832642
 20
100.5756724804
 30
0.0
 11
73.0297832642
 21
100.5756724804
 31
0.0
  0
ARC
  5
1EA
330
188
100
AcDbEntity
  8
AP_562_M
  6
Continuous
 62
     7
100
AcDbCircle
 10
73.0297832642
 20
100.7756724804
 30
0.0
 40
0.1999999999999988
100
AcDbArc
 50
180.0
 51
270.0
  0
LINE
  5
1EB
330
188
100
AcDbEntity
  8
AP_562_M
  6
Continuous
 62
     7
100
AcDbLine
 10
72.8297832642
 20
100.7756724804
 30
0.0
 11
72.8297832642
 21
125.3756724804
 31
0.0
  0
ARC
  5
1EC
330
188
100
AcDbEntity
  8
AP_562_M
  6
Continuous
 62
     7
100
AcDbCircle
 10
72.6297832642
 20
125.3756724804
 30
0.0
 40
0.1999999999999988
100
AcDbArc
 50
0.0
 51
14.4487951036
  0
ARC
  5
1ED
330
188
100
AcDbEntity
  8
AP_562_M
  6
HIDDEN2
 62
     7
100
AcDbCircle
 10
72.6297832642
 20
125.3756724804
 30
0.0
 40
0.1999999999999988
100
AcDbArc
 50
14.4487951036
 51
86.5376000166
  0
ARC
  5
1EE
330
188
100
AcDbEntity
  8
AP_562_M
  6
Continuous
 62
     7
100
AcDbCircle
 10
72.6297832642
 20
125.3756724804
 30
0.0
 40
0.1999999999999988
100
AcDbArc
 50
86.5376000166
 51
90.0
  0
LINE
  5
1EF
330
188
100
AcDbEntity
  8
AP_562_M
  6
Continuous
 62
     7
100
AcDbLine
 10
72.6297832642
 20
125.5756724804
 30
0.0
 11
71.1297832642
 21
125.5756724804
 31
0.0
  0
LINE
  5
1F0
330
188
100
AcDbEntity
  8
AP_562_M
  6
Continuous
 62
     7
100
AcDbLine
 10
70.9297832642
 20
125.7756724804
 30
0.0
 11
70.9297832642
 21
126.3756724804
 31
0.0
  0
LINE
  5
1F1
330
188
100
AcDbEntity
  8
AP_562_M
  6
Continuous
 62
     7
100
AcDbLine
 10
71.1297832642
 20
126.5756724804
 30
0.0
 11
72.1797832642
 21
126.5756724804
 31
0.0
  0
ARC
  5
1F2
330
188
100
AcDbEntity
  8
AP_562_M
  6
Continuous
 62
     7
100
AcDbCircle
 10
72.1797832642
 20
126.9256724804
 30
0.0
 40
0.3499999999999996
100
AcDbArc
 50
270.0
 51
90.0
  0
LINE
  5
1F3
330
188
100
AcDbEntity
  8
AP_562_M
  6
Continuous
 62
     7
100
AcDbLine
 10
72.1797832642
 20
127.2756724804
 30
0.0
 11
72.1797832642
 21
128.0756724804
 31
0.0
  0
LINE
  5
1F4
330
188
100
AcDbEntity
  8
AP_562_M
  6
Continuous
 62
     7
100
AcDbLine
 10
72.3797832642
 20
128.2756724804
 30
0.0
 11
72.6297832642
 21
128.2756724804
 31
0.0
  0
LINE
  5
1F5
330
188
100
AcDbEntity
  8
AP_562_M
  6
Continuous
 62
     7
100
AcDbLine
 10
72.8297832642
 20
128.4756724804
 30
0.0
 11
72.8297832642
 21
129.3756724804
 31
0.0
  0
ARC
  5
1F6
330
188
100
AcDbEntity
  8
AP_562_M
  6
Continuous
 62
     7
100
AcDbCircle
 10
72.6297832642
 20
129.3756724804
 30
0.0
 40
0.1999999999999997
100
AcDbArc
 50
0.0
 51
90.0
  0
ARC
  5
1F7
330
188
100
AcDbEntity
  8
AP_562_M
  6
Continuous
 62
     7
100
AcDbCircle
 10
71.1297832642
 20
125.7756724804
 30
0.0
 40
0.1999999999999988
100
AcDbArc
 50
180.0
 51
270.0
  0
ARC
  5
1F8
330
188
100
AcDbEntity
  8
AP_562_M
  6
Continuous
 62
     7
100
AcDbCircle
 10
71.1297832642
 20
126.3756724804
 30
0.0
 40
0.2000000000000001
100
AcDbArc
 50
90.0
 51
180.0
  0
ARC
  5
1F9
330
188
100
AcDbEntity
  8
AP_562_M
  6
Continuous
 62
     7
100
AcDbCircle
 10
72.3797832642
 20
128.0756724804
 30
0.0
 40
0.1999999999999997
100
AcDbArc
 50
90.0
 51
180.0
  0
ARC
  5
1FA
330
188
100
AcDbEntity
  8
AP_562_M
  6
Continuous
 62
     7
100
AcDbCircle
 10
72.6297832642
 20
128.4756724804
 30
0.0
 40
0.2000000000000005
100
AcDbArc
 50
270.0
 51
0.0
  0
LINE
  5
1FB
330
188
100
AcDbEntity
  8
AJ_359
  6
Continuous
 62
     7
100
AcDbLine
 10
70.7297832642
 20
128.0756724804
 30
0.0
 11
71.9297832642
 21
128.0756724804
 31
0.0
  0
LINE
  5
1FC
330
188
100
AcDbEntity
  8
AJ_359
  6
Continuous
 62
     7
100
AcDbLine
 10
71.9297832642
 20
128.0756724804
 30
0.0
 11
71.9297832642
 21
126.5756724804
 31
0.0
  0
LINE
  5
1FD
330
188
100
AcDbEntity
  8
AJ_359
  6
Continuous
 62
     7
100
AcDbLine
 10
71.1297832642
 20
126.5756724804
 30
0.0
 11
70.7297832642
 21
126.5756724804
 31
0.0
  0
LINE
  5
1FE
330
188
100
AcDbEntity
  8
AJ_359
  6
Continuous
 62
     7
100
AcDbLine
 10
64.1297832642
 20
126.5756724804
 30
0.0
 11
63.7297832642
 21
126.5756724804
 31
0.0
  0
LINE
  5
1FF
330
188
100
AcDbEntity
  8
AJ_359
  6
Continuous
 62
     7
100
AcDbLine
 10
62.9297832642
 20
126.5756724804
 30
0.0
 11
62.9297832642
 21
128.0756724804
 31
0.0
  0
LINE
  5
200
330
188
100
AcDbEntity
  8
AJ_359
  6
Continuous
 62
     7
100
AcDbLine
 10
64.1297832642
 20
128.0756724804
 30
0.0
 11
62.9297832642
 21
128.0756724804
 31
0.0
  0
LINE
  5
201
330
188
100
AcDbEntity
  8
AJ_359
  6
Continuous
 62
     7
100
AcDbLine
 10
64.1297832642
 20
128.0756724804
 30
0.0
 11
70.7297832642
 21
128.0756724804
 31
0.0
  0
LINE
  5
202
330
188
100
AcDbEntity
  8
AJ_359
  6
Continuous
 62
     7
100
AcDbLine
 10
70.7297832642
 20
114.5906368947
 30
0.0
 11
70.7297832642
 21
114.5756724804
 31
0.0
  0
LINE
  5
203
330
188
100
AcDbEntity
  8
AJ_359
  6
Continuous
 62
     7
100
AcDbLine
 10
70.7297832642
 20
128.0607080662
 30
0.0
 11
70.7297832642
 21
114.5906368947
 31
0.0
  0
LINE
  5
204
330
188
100
AcDbEntity
  8
AJ_359
  6
Continuous
 62
     7
100
AcDbLine
 10
70.7297832642
 20
128.0756724804
 30
0.0
 11
70.7297832642
 21
128.0607080662
 31
0.0
  0
LINE
  5
205
330
188
100
AcDbEntity
  8
AJ_359
  6
Continuous
 62
     7
100
AcDbLine
 10
64.1297832642
 20
114.5756724804
 30
0.0
 11
64.1297832642
 21
114.5906368947
 31
0.0
  0
LINE
  5
206
330
188
100
AcDbEntity
  8
AJ_359
  6
Continuous
 62
     7
100
AcDbLine
 10
64.1297832642
 20
114.5906368947
 30
0.0
 11
64.1297832642
 21
128.0607080662
 31
0.0
  0
LINE
  5
207
330
188
100
AcDbEntity
  8
AJ_359
  6
Continuous
 62
     7
100
AcDbLine
 10
64.1297832642
 20
128.0607080662
 30
0.0
 11
64.1297832642
 21
128.0756724804
 31
0.0
  0
LINE
  5
208
330
188
100
AcDbEntity
  8
AJ_359
  6
Continuous
 62
     7
100
AcDbLine
 10
70.7297832642
 20
114.5756724804
 30
0.0
 11
64.1297832642
 21
114.5756724804
 31
0.0
  0
SPLINE
  5
209
330
188
100
AcDbEntity
  8
AJ_359
  6
Continuous
 62
     7
100
AcDbSpline
210
0.0
220
0.0
230
1.0
 70
     8
 71
     3
 72
    20
 73
    16
 74
     0
 42
0.000000001
 43
0.0000000001
 40
0.0
 40
0.0
 40
0.0
 40
0.0
 40
0.1920626564234774
 40
0.1920626564234774
 40
0.1920626564234774
 40
0.4259408065429229
 40
0.4259408065429229
 40
0.4259408065429229
 40
0.7449077213504677
 40
0.7449077213504677
 40
0.7449077213504677
 40
0.9945387088065732
 40
0.9945387088065732
 40
0.9945387088065732
 40
1.0
 40
1.0
 40
1.0
 40
1.0
 10
64.12978326420227
 20
114.5906368946721
 30
0.0
 10
64.12978326420227
 20
114.6031927333365
 30
0.0
 10
64.13813926745713
 20
114.623430462121
 30
0.0
 10
64.15224124391743
 20
114.6477975959578
 30
0.0
 10
64.1694205713558
 20
114.6774821562813
 30
0.0
 10
64.1954466564969
 20
114.7140968278168
 30
0.0
 10
64.22615675958727
 20
114.7532705214953
 30
0.0
 10
64.26792976985149
 20
114.8065560185612
 30
0.0
 10
64.31959718392457
 20
114.8662417523817
 30
0.0
 10
64.37524334222928
 20
114.9268141454563
 30
0.0
 10
64.41906113738492
 20
114.9745110358201
 30
0.0
 10
64.46614092914744
 20
115.0236370984509
 30
0.0
 10
64.51461202086841
 20
115.0724793498863
 30
0.0
 10
64.51566830121553
 20
115.073543718533
 30
0.0
 10
64.51672538846401
 20
115.0746081006968
 30
0.0
 10
64.5177832642023
 20
115.0756724804175
 30
0.0
  0
SPLINE
  5
20A
330
188
100
AcDbEntity
  8
AJ_359
  6
Continuous
 62
     7
100
AcDbSpline
210
0.0
220
0.0
230
1.0
 70
     8
 71
     3
 72
    20
 73
    16
 74
     0
 42
0.000000001
 43
0.0000000001
 40
0.0
 40
0.0
 40
0.0
 40
0.0
 40
0.0054612911934266
 40
0.0054612911934266
 40
0.0054612911934266
 40
0.2550922786495285
 40
0.2550922786495285
 40
0.2550922786495285
 40
0.5740591934570767
 40
0.5740591934570767
 40
0.5740591934570767
 40
0.8079373435765225
 40
0.8079373435765225
 40
0.8079373435765225
 40
1.0
 40
1.0
 40
1.0
 40
1.0
 10
70.34178326420225
 20
115.0756724804175
 30
0.0
 10
70.34284113994053
 20
115.0746081006967
 30
0.0
 10
70.34389822718897
 20
115.0735437185329
 30
0.0
 10
70.34495450753609
 20
115.0724793498862
 30
0.0
 10
70.3934255992575
 20
115.0236370984513
 30
0.0
 10
70.44050539101963
 20
114.9745110358201
 30
0.0
 10
70.48432318617526
 20
114.9268141454563
 30
0.0
 10
70.53996934447997
 20
114.8662417523817
 30
0.0
 10
70.59163675855305
 20
114.8065560185612
 30
0.0
 10
70.63340976881727
 20
114.7532705214953
 30
0.0
 10
70.66411987190764
 20
114.7140968278168
 30
0.0
 10
70.69014595704874
 20
114.6774821562813
 30
0.0
 10
70.70732528448711
 20
114.6477975959578
 30
0.0
 10
70.72142726094741
 20
114.623430462121
 30
0.0
 10
70.72978326420227
 20
114.6031927333365
 30
0.0
 10
70.72978326420227
 20
114.5906368946721
 30
0.0
  0
SPLINE
  5
20B
330
188
100
AcDbEntity
  8
AJ_359
  6
Continuous
 62
     7
100
AcDbSpline
210
0.0
220
0.0
230
1.0
 70
     8
 71
     3
 72
    20
 73
    16
 74
     0
 42
0.000000001
 43
0.0000000001
 40
0.0
 40
0.0
 40
0.0
 40
0.0
 40
0.1920626564234774
 40
0.1920626564234774
 40
0.1920626564234774
 40
0.4259408065429225
 40
0.4259408065429225
 40
0.4259408065429225
 40
0.7449077213504675
 40
0.7449077213504675
 40
0.7449077213504675
 40
0.9945387088065751
 40
0.9945387088065751
 40
0.9945387088065751
 40
1.0
 40
1.0
 40
1.0
 40
1.0
 10
64.12978326420227
 20
128.060708066163
 30
0.0
 10
64.12978326420227
 20
128.0481522274985
 30
0.0
 10
64.13813926745715
 20
128.027914498714
 30
0.0
 10
64.15224124391743
 20
128.0035473648772
 30
0.0
 10
64.1694205713558
 20
127.9738628045537
 30
0.0
 10
64.1954466564969
 20
127.9372481330183
 30
0.0
 10
64.22615675958728
 20
127.8980744393398
 30
0.0
 10
64.26792976985149
 20
127.8447889422738
 30
0.0
 10
64.31959718392457
 20
127.7851032084534
 30
0.0
 10
64.37524334222928
 20
127.7245308153788
 30
0.0
 10
64.41906113738492
 20
127.6768339250149
 30
0.0
 10
64.46614092914746
 20
127.6277078623841
 30
0.0
 10
64.51461202086843
 20
127.5788656109488
 30
0.0
 10
64.51566830121554
 20
127.5778012423021
 30
0.0
 10
64.51672538846401
 20
127.5767368601383
 30
0.0
 10
64.5177832642023
 20
127.5756724804175
 30
0.0
  0
SPLINE
  5
20C
330
188
100
AcDbEntity
  8
AJ_359
  6
Continuous
 62
     7
100
AcDbSpline
210
0.0
220
0.0
230
1.0
 70
     8
 71
     3
 72
    20
 73
    16
 74
     0
 42
0.000000001
 43
0.0000000001
 40
0.0
 40
0.0
 40
0.0
 40
0.0
 40
0.0054612911934254
 40
0.0054612911934254
 40
0.0054612911934254
 40
0.2550922786495261
 40
0.2550922786495261
 40
0.2550922786495261
 40
0.5740591934570768
 40
0.5740591934570768
 40
0.5740591934570768
 40
0.8079373435765171
 40
0.8079373435765171
 40
0.8079373435765171
 40
1.0
 40
1.0
 40
1.0
 40
1.0
 10
70.34178326420225
 20
127.5756724804175
 30
0.0
 10
70.3428411399405
 20
127.5767368601383
 30
0.0
 10
70.34389822718884
 20
127.5778012423023
 30
0.0
 10
70.34495450753599
 20
127.5788656109489
 30
0.0
 10
70.39342559925892
 20
127.6277078623822
 30
0.0
 10
70.44050539101963
 20
127.6768339250149
 30
0.0
 10
70.48432318617526
 20
127.7245308153788
 30
0.0
 10
70.53996934447997
 20
127.7851032084534
 30
0.0
 10
70.59163675855305
 20
127.8447889422738
 30
0.0
 10
70.63340976881727
 20
127.8980744393398
 30
0.0
 10
70.66411987190764
 20
127.9372481330183
 30
0.0
 10
70.69014595704874
 20
127.9738628045537
 30
0.0
 10
70.70732528448711
 20
128.0035473648772
 30
0.0
 10
70.72142726094741
 20
128.027914498714
 30
0.0
 10
70.72978326420228
 20
128.0481522274985
 30
0.0
 10
70.72978326420228
 20
128.060708066163
 30
0.0
  0
ARC
  5
20D
330
188
100
AcDbEntity
  8
AJ_359
  6
Continuous
 62
     7
100
AcDbCircle
 10
67.4297832642
 20
122.5756724804
 30
0.0
 40
3.75
100
AcDbArc
 50
151.6423634237
 51
208.3576365763
  0
ARC
  5
20E
330
188
100
AcDbEntity
  8
AJ_359
  6
Continuous
 62
     7
100
AcDbCircle
 10
67.4297832642
 20
122.5756724804
 30
0.0
 40
3.75
100
AcDbArc
 50
331.6423634237
 51
28.3576365763
  0
ARC
  5
20F
330
188
100
AcDbEntity
  8
AP_592_703MM
  6
Continuous
 62
     7
100
AcDbCircle
 10
67.4297832642
 20
99.9253074089
 30
0.0
 40
3.900000000000001
100
AcDbArc
 50
29.8449626974
 51
150.155037305
  0
ARC
  5
210
330
188
100
AcDbEntity
  8
AP_592_703MM
  6
Continuous
 62
     7
100
AcDbCircle
 10
67.4297832641
 20
106.0753074095
 30
0.0
 40
5.400000000000002
100
AcDbArc
 50
231.2122159736
 51
308.7877840288
  0
LINE
  5
211
330
188
100
AcDbEntity
  8
AP_592_703MM
  6
Continuous
 62
     7
100
AcDbLine
 10
64.4177325875
 20
109.0732708862
 30
0.0
 11
64.8632514146
 21
109.0732708862
 31
0.0
  0
ARC
  5
212
330
188
100
AcDbEntity
  8
AP_592_703MM
  6
Continuous
 62
     7
100
AcDbCircle
 10
64.8632514146
 20
108.3732708862
 30
0.0
 40
0.6999999999999993
100
AcDbArc
 50
270.0
 51
90.0
  0
LINE
  5
213
330
188
100
AcDbEntity
  8
AP_592_703MM
  6
Continuous
 62
     7
100
AcDbLine
 10
64.8632514146
 20
107.6732708862
 30
0.0
 11
64.4177325875
 21
107.6732708862
 31
0.0
  0
ARC
  5
214
330
188
100
AcDbEntity
  8
AP_592_703MM
  6
Continuous
 62
     7
100
AcDbCircle
 10
64.4177325875
 20
108.3732708862
 30
0.0
 40
0.7000000000000027
100
AcDbArc
 50
90.0
 51
270.0
  0
LINE
  5
215
330
188
100
AcDbEntity
  8
AP_592_703MM
  6
Continuous
 62
     7
100
AcDbLine
 10
69.9963151136
 20
107.6732708862
 30
0.0
 11
70.4418339407
 21
107.6732708862
 31
0.0
  0
ARC
  5
216
330
188
100
AcDbEntity
  8
AP_592_703MM
  6
Continuous
 62
     7
100
AcDbCircle
 10
70.4418339407
 20
108.3732708862
 30
0.0
 40
0.7000000000000027
100
AcDbArc
 50
270.0
 51
90.0
  0
LINE
  5
217
330
188
100
AcDbEntity
  8
AP_592_703MM
  6
Continuous
 62
     7
100
AcDbLine
 10
70.4418339407
 20
109.0732708862
 30
0.0
 11
69.9963151136
 21
109.0732708862
 31
0.0
  0
ARC
  5
218
330
188
100
AcDbEntity
  8
AP_592_703MM
  6
Continuous
 62
     7
100
AcDbCircle
 10
69.9963151136
 20
108.3732708862
 30
0.0
 40
0.6999999999999993
100
AcDbArc
 50
90.0
 51
270.0
  0
LINE
  5
219
330
188
100
AcDbEntity
  8
AP_592_703MM
  6
Continuous
 62
     7
100
AcDbLine
 10
71.457173073
 20
113.2230395403
 30
0.0
 11
71.3796547498
 21
111.3881761124
 31
0.0
  0
ARC
  5
21A
330
188
100
AcDbEntity
  8
AP_592_703MM
  6
Continuous
 62
     7
100
AcDbCircle
 10
71.4635045445
 20
113.3729058556
 30
0.0
 40
0.150000000000004
100
AcDbArc
 50
87.5808373205
 51
267.5808373205
  0
LINE
  5
21B
330
188
100
AcDbEntity
  8
AP_592_703MM
  6
Continuous
 62
     7
100
AcDbLine
 10
71.9790250418
 20
125.5753074097
 30
0.0
 11
71.4698360159
 21
113.5227721709
 31
0.0
  0
LINE
  5
21C
330
188
100
AcDbEntity
  8
AP_592_703MM
  6
Continuous
 62
     7
100
AcDbLine
 10
72.8297832643
 20
125.5753074097
 30
0.0
 11
71.9790250418
 21
125.5753074097
 31
0.0
  0
LINE
  5
21D
330
188
100
AcDbEntity
  8
AP_592_703MM
  6
Continuous
 62
     7
100
AcDbLine
 10
72.3866141654
 20
115.0854678627
 30
0.0
 11
72.8297832643
 21
125.5753074097
 31
0.0
  0
LINE
  5
21E
330
188
100
AcDbEntity
  8
AP_592_703MM
  6
Continuous
 62
     7
100
AcDbLine
 10
72.1262845207
 20
114.8462431228
 30
0.0
 11
72.3866141654
 21
115.0854678627
 31
0.0
  0
LINE
  5
21F
330
188
100
AcDbEntity
  8
AP_592_703MM
  6
Continuous
 62
     7
100
AcDbLine
 10
71.9996550911
 20
111.8489168164
 30
0.0
 11
72.1262845207
 21
114.8462431228
 31
0.0
  0
LINE
  5
220
330
188
100
AcDbEntity
  8
AP_592_703MM
  6
Continuous
 62
     7
100
AcDbLine
 10
72.2297850631
 20
111.5984842989
 30
0.0
 11
71.9996550911
 21
111.8489168164
 31
0.0
  0
LINE
  5
221
330
188
100
AcDbEntity
  8
AP_592_703MM
  6
Continuous
 62
     7
100
AcDbLine
 10
72.2297850631
 20
103.3377544817
 30
0.0
 11
72.2297850631
 21
111.5984842989
 31
0.0
  0
ARC
  5
222
330
188
100
AcDbEntity
  8
AP_592_703MM
  6
Continuous
 62
     7
100
AcDbCircle
 10
69.9523653413
 20
103.3377544817
 30
0.0
 40
2.277419721799488
100
AcDbArc
 50
312.6597459593
 51
0.0
  0
ARC
  5
223
330
188
100
AcDbEntity
  8
AP_592_703MM
  6
Continuous
 62
     7
100
AcDbCircle
 10
67.4297842154
 20
106.0753060138
 30
0.0
 40
5.999999999954547
100
AcDbArc
 50
226.0996692712
 51
312.6597459594
  0
ARC
  5
224
330
188
100
AcDbEntity
  8
AP_592_703MM
  6
Continuous
 62
     7
100
AcDbCircle
 10
64.7158156074
 20
103.2551079335
 30
0.0
 40
2.086032343338887
100
AcDbArc
 50
180.0
 51
226.0996692712
  0
LINE
  5
225
330
188
100
AcDbEntity
  8
AP_592_703MM
  6
Continuous
 62
     7
100
AcDbLine
 10
62.6297832641
 20
111.5984862563
 30
0.0
 11
62.6297832641
 21
103.2551079335
 31
0.0
  0
LINE
  5
226
330
188
100
AcDbEntity
  8
AP_592_703MM
  6
Continuous
 62
     7
100
AcDbLine
 10
62.8599114373
 20
111.8489168164
 30
0.0
 11
62.6297832641
 21
111.5984862563
 31
0.0
  0
LINE
  5
227
330
188
100
AcDbEntity
  8
AP_592_703MM
  6
Continuous
 62
     7
100
AcDbLine
 10
62.7332820077
 20
114.8462431228
 30
0.0
 11
62.8599114373
 21
111.8489168164
 31
0.0
  0
LINE
  5
228
330
188
100
AcDbEntity
  8
AP_592_703MM
  6
Continuous
 62
     7
100
AcDbLine
 10
62.472952363
 20
115.0854678627
 30
0.0
 11
62.7332820077
 21
114.8462431228
 31
0.0
  0
LINE
  5
229
330
188
100
AcDbEntity
  8
AP_592_703MM
  6
Continuous
 62
     7
100
AcDbLine
 10
62.0297832641
 20
125.5753074097
 30
0.0
 11
62.472952363
 21
115.0854678627
 31
0.0
  0
LINE
  5
22A
330
188
100
AcDbEntity
  8
AP_592_703MM
  6
Continuous
 62
     7
100
AcDbLine
 10
62.8805414863
 20
125.5753074097
 30
0.0
 11
62.0297832641
 21
125.5753074097
 31
0.0
  0
LINE
  5
22B
330
188
100
AcDbEntity
  8
AP_592_703MM
  6
Continuous
 62
     7
100
AcDbLine
 10
63.3897305122
 20
113.5227721709
 30
0.0
 11
62.8805414863
 21
125.5753074097
 31
0.0
  0
ARC
  5
22C
330
188
100
AcDbEntity
  8
AP_592_703MM
  6
Continuous
 62
     7
100
AcDbCircle
 10
63.3960619837
 20
113.3729058556
 30
0.0
 40
0.1500000000000005
100
AcDbArc
 50
272.4191626795
 51
92.4191626795
  0
LINE
  5
22D
330
188
100
AcDbEntity
  8
AP_592_703MM
  6
Continuous
 62
     7
100
AcDbLine
 10
63.4799117784
 20
111.3881761124
 30
0.0
 11
63.4023934552
 21
113.2230395403
 31
0.0
  0
LINE
  5
22E
330
188
100
AcDbEntity
  8
AP_592_703MM
  6
Continuous
 62
     7
100
AcDbLine
 10
63.4799117784
 20
109.7235882543
 30
0.0
 11
63.4799117784
 21
111.3881761124
 31
0.0
  0
LINE
  5
22F
330
188
100
AcDbEntity
  8
AP_592_703MM
  6
Continuous
 62
     7
100
AcDbLine
 10
64.4797832641
 20
109.7235882543
 30
0.0
 11
63.4799117784
 21
109.7235882543
 31
0.0
  0
LINE
  5
230
330
188
100
AcDbEntity
  8
AP_592_703MM
  6
Continuous
 62
     7
100
AcDbLine
 10
64.4797832641
 20
109.873518646
 30
0.0
 11
64.4797832641
 21
109.7235882543
 31
0.0
  0
ARC
  5
231
330
188
100
AcDbEntity
  8
AP_592_703MM
  6
Continuous
 62
     7
100
AcDbCircle
 10
64.7297832641
 20
109.873518646
 30
0.0
 40
0.2500000000000003
100
AcDbArc
 50
50.0
 51
180.0
  0
LINE
  5
232
330
188
100
AcDbEntity
  8
AP_592_703MM
  6
Continuous
 62
     7
100
AcDbLine
 10
65.8037163387
 20
109.2987336216
 30
0.0
 11
64.8904801665
 21
110.0650297568
 31
0.0
  0
ARC
  5
233
330
188
100
AcDbEntity
  8
AP_592_703MM
  6
Continuous
 62
     7
100
AcDbCircle
 10
65.4823225338
 20
108.9157114
 30
0.0
 40
0.5
100
AcDbArc
 50
0.0
 51
50.0
  0
LINE
  5
234
330
188
100
AcDbEntity
  8
AP_592_703MM
  6
Continuous
 62
     7
100
AcDbLine
 10
65.9823225338
 20
107.8301003112
 30
0.0
 11
65.9823225338
 21
108.9157114
 31
0.0
  0
ARC
  5
235
330
188
100
AcDbEntity
  8
AP_592_703MM
  6
Continuous
 62
     7
100
AcDbCircle
 10
65.4823225338
 20
107.8301003112
 30
0.0
 40
0.5000000000000011
100
AcDbArc
 50
310.0
 51
0.0
  0
LINE
  5
236
330
188
100
AcDbEntity
  8
AP_592_703MM
  6
Continuous
 62
     7
100
AcDbLine
 10
64.8904801665
 20
106.6807819544
 30
0.0
 11
65.8037163387
 21
107.4470780896
 31
0.0
  0
ARC
  5
237
330
188
100
AcDbEntity
  8
AP_592_703MM
  6
Continuous
 62
     7
100
AcDbCircle
 10
64.7297832641
 20
106.8722930652
 30
0.0
 40
0.2499999999999999
100
AcDbArc
 50
179.9840394803
 51
310.0
  0
LINE
  5
238
330
188
100
AcDbEntity
  8
AP_592_703MM
  6
Continuous
 62
     7
100
AcDbLine
 10
64.4752140587
 20
107.0222234569
 30
0.0
 11
64.4797832738
 21
106.8723627061
 31
0.0
  0
LINE
  5
239
330
188
100
AcDbEntity
  8
AP_592_703MM
  6
Continuous
 62
     7
100
AcDbLine
 10
63.4799117789
 20
107.0222234569
 30
0.0
 11
64.4752140587
 21
107.0222234569
 31
0.0
  0
LINE
  5
23A
330
188
100
AcDbEntity
  8
AP_592_703MM
  6
Continuous
 62
     7
100
AcDbLine
 10
63.4799117789
 20
102.3896995447
 30
0.0
 11
63.4799117789
 21
107.0222234569
 31
0.0
  0
ARC
  5
23B
330
188
100
AcDbEntity
  8
AP_592_703MM
  6
Continuous
 62
     7
100
AcDbCircle
 10
63.5357720326
 20
102.3340941667
 30
0.0
 40
0.0788183100623406
100
AcDbArc
 50
135.1310114424
 51
328.2595820011
  0
ARC
  5
23C
330
188
100
AcDbEntity
  8
AP_592_703MM
  6
Continuous
 62
     7
100
AcDbCircle
 10
67.4297832642
 20
99.9253074089
 30
0.0
 40
4.499999999999992
100
AcDbArc
 50
31.4905360333
 51
148.2595820011
  0
ARC
  5
23D
330
188
100
AcDbEntity
  8
AP_592_703MM
  6
Continuous
 62
     7
100
AcDbCircle
 10
71.3237944932
 20
102.3340941642
 30
0.0
 40
0.0812664661493969
100
AcDbArc
 50
225.7153387915
 51
46.5776002129
  0
LINE
  5
23E
330
188
100
AcDbEntity
  8
AP_592_703MM
  6
Continuous
 62
     7
100
AcDbLine
 10
71.379654747
 20
107.0222234569
 30
0.0
 11
71.379654747
 21
102.393118486
 31
0.0
  0
LINE
  5
23F
330
188
100
AcDbEntity
  8
AP_592_703MM
  6
Continuous
 62
     7
100
AcDbLine
 10
70.3843524694
 20
107.0222234569
 30
0.0
 11
71.379654747
 21
107.0222234569
 31
0.0
  0
LINE
  5
240
330
188
100
AcDbEntity
  8
AP_592_703MM
  6
Continuous
 62
     7
100
AcDbLine
 10
70.3797832544
 20
106.8723627061
 30
0.0
 11
70.3843524694
 21
107.0222234569
 31
0.0
  0
ARC
  5
241
330
188
100
AcDbEntity
  8
AP_592_703MM
  6
Continuous
 62
     7
100
AcDbCircle
 10
70.1297832641
 20
106.8722930652
 30
0.0
 40
0.2500000000000003
100
AcDbArc
 50
230.0
 51
0.0159605197
  0
LINE
  5
242
330
188
100
AcDbEntity
  8
AP_592_703MM
  6
Continuous
 62
     7
100
AcDbLine
 10
69.0558501895
 20
107.4470780896
 30
0.0
 11
69.9690863617
 21
106.6807819544
 31
0.0
  0
ARC
  5
243
330
188
100
AcDbEntity
  8
AP_592_703MM
  6
Continuous
 62
     7
100
AcDbCircle
 10
69.3772439944
 20
107.8301003112
 30
0.0
 40
0.5
100
AcDbArc
 50
180.0
 51
230.0
  0
LINE
  5
244
330
188
100
AcDbEntity
  8
AP_592_703MM
  6
Continuous
 62
     7
100
AcDbLine
 10
68.8772439944
 20
108.9157114
 30
0.0
 11
68.8772439944
 21
107.8301003112
 31
0.0
  0
ARC
  5
245
330
188
100
AcDbEntity
  8
AP_592_703MM
  6
Continuous
 62
     7
100
AcDbCircle
 10
69.3772439944
 20
108.9157114
 30
0.0
 40
0.4999999999999998
100
AcDbArc
 50
130.0
 51
180.0
  0
LINE
  5
246
330
188
100
AcDbEntity
  8
AP_592_703MM
  6
Continuous
 62
     7
100
AcDbLine
 10
69.9690863617
 20
110.0650297568
 30
0.0
 11
69.0558501895
 21
109.2987336216
 31
0.0
  0
ARC
  5
247
330
188
100
AcDbEntity
  8
AP_592_703MM
  6
Continuous
 62
     7
100
AcDbCircle
 10
70.1297832641
 20
109.873518646
 30
0.0
 40
0.2500000000000002
100
AcDbArc
 50
0.0
 51
130.0
  0
LINE
  5
248
330
188
100
AcDbEntity
  8
AP_592_703MM
  6
Continuous
 62
     7
100
AcDbLine
 10
70.3797832641
 20
109.7235882543
 30
0.0
 11
70.3797832641
 21
109.873518646
 31
0.0
  0
LINE
  5
249
330
188
100
AcDbEntity
  8
AP_592_703MM
  6
Continuous
 62
     7
100
AcDbLine
 10
71.3796547498
 20
109.7235882543
 30
0.0
 11
70.3797832641
 21
109.7235882543
 31
0.0
  0
LINE
  5
24A
330
188
100
AcDbEntity
  8
AP_592_703MM
  6
Continuous
 62
     7
100
AcDbLine
 10
71.3796547498
 20
111.3881761124
 30
0.0
 11
71.3796547498
 21
109.7235882543
 31
0.0
  0
ENDBLK
  5
24C
330
188
100
AcDbEntity
  8
0
100
AcDbBlockEnd
  0
BLOCK
  5
255
330
24E
100
AcDbEntity
  8
0
100
AcDbBlockBegin
  2
DMBLK19
 70
     0
 10
0.0
 20
0.0
 30
0.0
  3
DMBLK19
  1
DMBLK19
  0
LWPOLYLINE
  5
24F
330
24E
100
AcDbEntity
  8
Standard
  6
Continuous
 62
     7
100
AcDbPolyline
 90
        3
 70
     0
 43
0.0
 10
64.7797831804
 20
135.9474996944
 10
61.0297832642
 20
136.5724996805
 10
64.7797831804
 20
137.1974996665
  0
LWPOLYLINE
  5
250
330
24E
100
AcDbEntity
  8
Standard
  6
Continuous
 62
     7
100
AcDbPolyline
 90
        3
 70
     0
 43
0.0
 10
70.0797830247
 20
135.9474996944
 10
73.8297829408
 20
136.5724996805
 10
70.0797830247
 20
137.1974996665
  0
LINE
  5
251
330
24E
100
AcDbEntity
  8
Standard
  6
Continuous
 62
     7
100
AcDbLine
 10
61.0297832642
 20
130.3256724869
 30
0.0
 11
61.0297832642
 21
137.8224996525
 31
0.0
  0
LINE
  5
252
330
24E
100
AcDbEntity
  8
Standard
  6
Continuous
 62
     7
100
AcDbLine
 10
73.8297832642
 20
130.3256724869
 30
0.0
 11
73.8297832642
 21
137.8224996525
 31
0.0
  0
LINE
  5
253
330
24E
100
AcDbEntity
  8
Standard
  6
Continuous
 62
     7
100
AcDbLine
 10
61.0297832642
 20
136.5724996805
 30
0.0
 11
73.8297829408
 21
136.5724996805
 31
0.0
  0
TEXT
  5
254
330
24E
100
AcDbEntity
  8
Standard
  6
Continuous
 62
     7
100
AcDbText
 10
64.005870059
 20
137.1974996805
 30
0.0
 40
2.5
  1
12,8
  7
SEACAD_Arial
 11
64.005870059
 21
139.6974996805
 31
0.0
100
AcDbText
 73
     3
  0
ENDBLK
  5
256
330
24E
100
AcDbEntity
  8
0
100
AcDbBlockEnd
  0
BLOCK
  5
25F
330
258
100
AcDbEntity
  8
0
100
AcDbBlockBegin
  2
DMBLK20
 70
     0
 10
0.0
 20
0.0
 30
0.0
  3
DMBLK20
  1
DMBLK20
  0
LWPOLYLINE
  5
259
330
258
100
AcDbEntity
  8
Standard
  6
Continuous
 62
     7
100
AcDbPolyline
 90
        3
 70
     0
 43
0.0
 10
79.2164292174
 20
126.8256725642
 10
79.8414292034
 20
130.5756724804
 10
80.4664291894
 20
126.8256725642
  0
LWPOLYLINE
  5
25A
330
258
100
AcDbEntity
  8
Standard
  6
Continuous
 62
     7
100
AcDbPolyline
 90
        3
 70
     0
 43
0.0
 10
79.2164292174
 20
104.3256730672
 10
79.8414292034
 20
100.575673151
 10
80.4664291894
 20
104.3256730672
  0
LINE
  5
25B
330
258
100
AcDbEntity
  8
Standard
  6
Continuous
 62
     7
100
AcDbLine
 10
73.5797832707
 20
130.5756724804
 30
0.0
 11
81.0914291755
 21
130.5756724804
 31
0.0
  0
LINE
  5
25C
330
258
100
AcDbEntity
  8
Standard
  6
Continuous
 62
     7
100
AcDbLine
 10
74.3797832707
 20
100.5756724804
 30
0.0
 11
81.0914291755
 21
100.5756724804
 31
0.0
  0
LINE
  5
25D
330
258
100
AcDbEntity
  8
Standard
  6
Continuous
 62
     7
100
AcDbLine
 10
79.8414292034
 20
130.5756724804
 30
0.0
 11
79.8414292034
 21
100.575673151
 31
0.0
  0
TEXT
  5
25E
330
258
100
AcDbEntity
  8
Standard
  6
Continuous
 62
     7
100
AcDbText
 10
79.2164292034
 20
113.6191510766
 30
0.0
 40
2.5
  1
30
 50
90.0
  7
SEACAD_Arial
 11
76.7164292034
 21
113.6191510766
 31
0.0
100
AcDbText
 73
     3
  0
ENDBLK
  5
260
330
258
100
AcDbEntity
  8
0
100
AcDbBlockEnd
  0
BLOCK
  5
324
330
261
100
AcDbEntity
  8
0
100
AcDbBlockBegin
  2
SE2
 70
     0
 10
0.0
 20
0.0
 30
0.0
  3
SE2
  1
SE2
  0
ARC
  5
263
330
261
100
AcDbEntity
  8
AP_563_708MM
  6
Continuous
 62
     7
100
AcDbCircle
 10
152.1899044469
 20
114.0623908336
 30
0.0
 40
0.5000000000000004
100
AcDbArc
 50
90.0
 51
180.0
  0
LINE
  5
264
330
261
100
AcDbEntity
  8
AP_563_708MM
  6
Continuous
 62
     7
100
AcDbLine
 10
152.2899044469
 20
114.5623908336
 30
0.0
 11
152.1899044469
 21
114.5623908336
 31
0.0
  0
ARC
  5
265
330
261
100
AcDbEntity
  8
AP_563_708MM
  6
Continuous
 62
     7
100
AcDbCircle
 10
152.2899044469
 20
114.3623908336
 30
0.0
 40
0.1999999999999999
100
AcDbArc
 50
0.0
 51
90.0
  0
LINE
  5
266
330
261
100
AcDbEntity
  8
AP_563_708MM
  6
Continuous
 62
     7
100
AcDbLine
 10
152.4899044469
 20
113.4428804257
 30
0.0
 11
152.4899044469
 21
114.3623908336
 31
0.0
  0
LINE
  5
267
330
261
100
AcDbEntity
  8
AP_563_708MM
  6
Continuous
 62
     7
100
AcDbLine
 10
152.2484830907
 20
113.2014590695
 30
0.0
 11
152.4899044469
 21
113.4428804257
 31
0.0
  0
ARC
  5
268
330
261
100
AcDbEntity
  8
AP_563_708MM
  6
Continuous
 62
     7
100
AcDbCircle
 10
152.3899044469
 20
113.0600377132
 30
0.0
 40
0.2000000000000001
100
AcDbArc
 50
135.0
 51
225.0
  0
LINE
  5
269
330
261
100
AcDbEntity
  8
AP_563_708MM
  6
Continuous
 62
     7
100
AcDbLine
 10
152.4899044469
 20
112.6771950008
 30
0.0
 11
152.2484830907
 21
112.918616357
 31
0.0
  0
LINE
  5
26A
330
261
100
AcDbEntity
  8
AP_563_708MM
  6
Continuous
 62
     7
100
AcDbLine
 10
152.4899044469
 20
112.362390707
 30
0.0
 11
152.4899044469
 21
112.6771950008
 31
0.0
  0
ARC
  5
26B
330
261
100
AcDbEntity
  8
AP_563_708MM
  6
Continuous
 62
     7
100
AcDbCircle
 10
153.6399044469
 20
112.362390707
 30
0.0
 40
1.150000000000184
100
AcDbArc
 50
180.0
 51
0.0
  0
LINE
  5
26C
330
261
100
AcDbEntity
  8
AP_563_708MM
  6
Continuous
 62
     7
100
AcDbLine
 10
150.1899044469
 20
106.65994036
 30
0.0
 11
157.0899044469
 21
106.65994036
 31
0.0
  0
ARC
  5
26D
330
261
100
AcDbEntity
  8
AP_563_708MM
  6
Continuous
 62
     7
100
AcDbCircle
 10
150.1899044469
 20
107.15994036
 30
0.0
 40
0.5000000000000004
100
AcDbArc
 50
181.2990872952
 51
270.0
  0
LINE
  5
26E
330
261
100
AcDbEntity
  8
AP_563_708MM
  6
Continuous
 62
     7
100
AcDbLine
 10
150.0889056696
 20
108.3089416835
 30
0.0
 11
149.6900329616
 21
107.9100689755
 31
0.0
  0
ARC
  5
26F
330
261
100
AcDbEntity
  8
AP_563_708MM
  6
Continuous
 62
     7
100
AcDbCircle
 10
150.4899044469
 20
108.2099404608
 30
0.0
 40
0.200000000000001
100
AcDbArc
 50
9.0952669411
 51
29.6701534813
  0
LINE
  5
270
330
261
100
AcDbEntity
  8
AP_563_708MM
  6
Continuous
 62
     7
100
AcDbLine
 10
150.6899044469
 20
107.6599404085
 30
0.0
 11
150.6899044469
 21
108.1590112918
 31
0.0
  0
LINE
  5
271
330
261
100
AcDbEntity
  8
AP_563_708MM
  6
Continuous
 62
     7
100
AcDbLine
 10
153.0399044469
 20
107.659940641
 30
0.0
 11
150.6899044469
 21
107.6599404085
 31
0.0
  0
LINE
  5
272
330
261
100
AcDbEntity
  8
AP_563_708MM
  6
Continuous
 62
     7
100
AcDbLine
 10
153.0399044469
 20
110.2981488231
 30
0.0
 11
153.0399044469
 21
107.659940641
 31
0.0
  0
ARC
  5
273
330
261
100
AcDbEntity
  8
AP_563_708MM
  6
Continuous
 62
     7
100
AcDbCircle
 10
153.6347904364
 20
112.3642104532
 30
0.0
 40
2.149999999999999
100
AcDbArc
 50
199.1184497513
 51
253.9371784822
  0
LINE
  5
274
330
261
100
AcDbEntity
  8
AP_563_708MM
  6
Continuous
 62
     7
100
AcDbLine
 10
150.6899044469
 20
111.6600377309
 30
0.0
 11
151.6033769199
 21
111.6600378006
 31
0.0
  0
LINE
  5
275
330
261
100
AcDbEntity
  8
AP_563_708MM
  6
Continuous
 62
     7
100
AcDbLine
 10
150.6899044469
 20
111.1602368726
 30
0.0
 11
150.6899044469
 21
111.6600377309
 31
0.0
  0
ARC
  5
276
330
261
100
AcDbEntity
  8
AP_563_708MM
  6
Continuous
 62
     7
100
AcDbCircle
 10
150.4899044469
 20
111.1100377648
 30
0.0
 40
0.2000000000000005
100
AcDbArc
 50
330.0888508289
 51
0.0
  0
LINE
  5
277
330
261
100
AcDbEntity
  8
AP_563_708MM
  6
Continuous
 62
     7
100
AcDbLine
 10
149.690032961
 20
111.4099092506
 30
0.0
 11
150.0896357308
 21
111.0103064809
 31
0.0
  0
LINE
  5
278
330
261
100
AcDbEntity
  8
AP_563_708MM
  6
Continuous
 62
     7
100
AcDbLine
 10
150.6899044469
 20
112.6600377132
 30
0.0
 11
150.6899044469
 21
115.362390707
 31
0.0
  0
LINE
  5
279
330
261
100
AcDbEntity
  8
AP_563_708MM
  6
Continuous
 62
     7
100
AcDbLine
 10
151.6899044469
 20
112.6600377132
 30
0.0
 11
150.6899044469
 21
112.6600377132
 31
0.0
  0
LINE
  5
27A
330
261
100
AcDbEntity
  8
AP_563_708MM
  6
Continuous
 62
     7
100
AcDbLine
 10
151.6899044469
 20
114.0623908336
 30
0.0
 11
151.6899044469
 21
112.6600377132
 31
0.0
  0
LINE
  5
27B
330
261
100
AcDbEntity
  8
AP_563_708MM
  6
Continuous
 62
     7
100
AcDbLine
 10
156.5899044469
 20
112.6600377132
 30
0.0
 11
155.5899044469
 21
112.6600377132
 31
0.0
  0
LINE
  5
27C
330
261
100
AcDbEntity
  8
AP_563_708MM
  6
Continuous
 62
     7
100
AcDbLine
 10
155.5899044469
 20
112.6600377132
 30
0.0
 11
155.5899044469
 21
114.0623908336
 31
0.0
  0
ARC
  5
27D
330
261
100
AcDbEntity
  8
AP_563_708MM
  6
Continuous
 62
     7
100
AcDbCircle
 10
155.0899044469
 20
114.0623908336
 30
0.0
 40
0.5
100
AcDbArc
 50
0.0
 51
90.0
  0
LINE
  5
27E
330
261
100
AcDbEntity
  8
AP_563_708MM
  6
Continuous
 62
     7
100
AcDbLine
 10
155.0899044469
 20
114.5623908336
 30
0.0
 11
154.9899044469
 21
114.5623908336
 31
0.0
  0
ARC
  5
27F
330
261
100
AcDbEntity
  8
AP_563_708MM
  6
Continuous
 62
     7
100
AcDbCircle
 10
154.9899044469
 20
114.3623908336
 30
0.0
 40
0.2000000000000001
100
AcDbArc
 50
90.0
 51
180.0
  0
LINE
  5
280
330
261
100
AcDbEntity
  8
AP_563_708MM
  6
Continuous
 62
     7
100
AcDbLine
 10
154.7899044469
 20
114.3623908336
 30
0.0
 11
154.7899044469
 21
113.4428804257
 31
0.0
  0
LINE
  5
281
330
261
100
AcDbEntity
  8
AP_563_708MM
  6
Continuous
 62
     7
100
AcDbLine
 10
154.7899044469
 20
113.4428804257
 30
0.0
 11
155.0313258031
 21
113.2014590695
 31
0.0
  0
ARC
  5
282
330
261
100
AcDbEntity
  8
AP_563_708MM
  6
Continuous
 62
     7
100
AcDbCircle
 10
154.8899044469
 20
113.0600377132
 30
0.0
 40
0.2000000000000003
100
AcDbArc
 50
315.0
 51
45.0
  0
LINE
  5
283
330
261
100
AcDbEntity
  8
AP_563_708MM
  6
Continuous
 62
     7
100
AcDbLine
 10
155.0313258031
 20
112.918616357
 30
0.0
 11
154.7899044469
 21
112.6771950008
 31
0.0
  0
LINE
  5
284
330
261
100
AcDbEntity
  8
AP_563_708MM
  6
Continuous
 62
     7
100
AcDbLine
 10
154.7899044469
 20
112.6771950008
 30
0.0
 11
154.7899044469
 21
112.362390707
 31
0.0
  0
ARC
  5
285
330
261
100
AcDbEntity
  8
AP_563_708MM
  6
Continuous
 62
     7
100
AcDbCircle
 10
157.0899044469
 20
107.15994036
 30
0.0
 40
0.5000000000000004
100
AcDbArc
 50
270.0
 51
358.7008998379
  0
LINE
  5
286
330
261
100
AcDbEntity
  8
AP_563_708MM
  6
Continuous
 62
     7
100
AcDbLine
 10
157.5897759296
 20
107.910068978
 30
0.0
 11
157.1909032242
 21
108.3089416835
 31
0.0
  0
ARC
  5
287
330
261
100
AcDbEntity
  8
AP_563_708MM
  6
Continuous
 62
     7
100
AcDbCircle
 10
156.7899044469
 20
108.2099404608
 30
0.0
 40
0.2000000000000005
100
AcDbArc
 50
150.3298465187
 51
170.9047335543
  0
LINE
  5
288
330
261
100
AcDbEntity
  8
AP_563_708MM
  6
Continuous
 62
     7
100
AcDbLine
 10
156.5899044469
 20
108.1590112918
 30
0.0
 11
156.5899044469
 21
107.6599404085
 31
0.0
  0
LINE
  5
289
330
261
100
AcDbEntity
  8
AP_563_708MM
  6
Continuous
 62
     7
100
AcDbLine
 10
156.5899044469
 20
107.6599404085
 30
0.0
 11
154.2399044469
 21
107.659940641
 31
0.0
  0
LINE
  5
28A
330
261
100
AcDbEntity
  8
AP_563_708MM
  6
Continuous
 62
     7
100
AcDbLine
 10
154.2399044469
 20
107.659940641
 30
0.0
 11
154.2399044469
 21
110.2981488231
 31
0.0
  0
ARC
  5
28B
330
261
100
AcDbEntity
  8
AP_563_708MM
  6
Continuous
 62
     7
100
AcDbCircle
 10
153.6450184573
 20
112.3642104532
 30
0.0
 40
2.150000000000001
100
AcDbArc
 50
286.0628215178
 51
340.8815502487
  0
LINE
  5
28C
330
261
100
AcDbEntity
  8
AP_563_708MM
  6
Continuous
 62
     7
100
AcDbLine
 10
155.6764319739
 20
111.6600378006
 30
0.0
 11
156.5899044469
 21
111.6600377309
 31
0.0
  0
LINE
  5
28D
330
261
100
AcDbEntity
  8
AP_563_708MM
  6
Continuous
 62
     7
100
AcDbLine
 10
156.5899044469
 20
111.6600377309
 30
0.0
 11
156.5899044469
 21
111.1602368726
 31
0.0
  0
ARC
  5
28E
330
261
100
AcDbEntity
  8
AP_563_708MM
  6
Continuous
 62
     7
100
AcDbCircle
 10
156.7899044469
 20
111.1100377648
 30
0.0
 40
0.2000000000000001
100
AcDbArc
 50
180.0
 51
209.9111491711
  0
LINE
  5
28F
330
261
100
AcDbEntity
  8
AP_563_708MM
  6
Continuous
 62
     7
100
AcDbLine
 10
157.190173163
 20
111.0103064809
 30
0.0
 11
157.5897759325
 21
111.4099092504
 31
0.0
  0
LINE
  5
290
330
261
100
AcDbEntity
  8
AP_563_708MM
  6
Continuous
 62
     7
100
AcDbLine
 10
157.5899044469
 20
112.6779362822
 30
0.0
 11
157.5899044469
 21
114.5351622518
 31
0.0
  0
LINE
  5
291
330
261
100
AcDbEntity
  8
AP_563_708MM
  6
Continuous
 62
     7
100
AcDbLine
 10
157.5899044469
 20
114.7840859126
 30
0.0
 11
157.5899044469
 21
115.362390707
 31
0.0
  0
LINE
  5
292
330
261
100
AcDbEntity
  8
AP_563_708MM
  6
Continuous
 62
     7
100
AcDbLine
 10
156.5899044469
 20
115.362390707
 30
0.0
 11
156.5899044469
 21
112.6600377132
 31
0.0
  0
LINE
  5
293
330
261
100
AcDbEntity
  8
AP_563_708MM
  6
Continuous
 62
     7
100
AcDbLine
 10
156.5899044469
 20
115.362390707
 30
0.0
 11
156.5899044469
 21
115.862390707
 31
0.0
  0
LINE
  5
294
330
261
100
AcDbEntity
  8
AP_563_708MM
  6
Continuous
 62
     7
100
AcDbLine
 10
149.6899044469
 20
115.362390707
 30
0.0
 11
149.6899044469
 21
114.7840859125
 31
0.0
  0
LINE
  5
295
330
261
100
AcDbEntity
  8
AP_563_708MM
  6
Continuous
 62
     7
100
AcDbLine
 10
149.6899044469
 20
114.5351622519
 30
0.0
 11
149.6899044469
 21
112.6779362769
 31
0.0
  0
LINE
  5
296
330
261
100
AcDbEntity
  8
AP_563_708MM
  6
Continuous
 62
     7
100
AcDbLine
 10
150.6899044469
 20
115.362390707
 30
0.0
 11
149.6899044469
 21
115.362390707
 31
0.0
  0
LINE
  5
297
330
261
100
AcDbEntity
  8
AP_563_708MM
  6
Continuous
 62
     7
100
AcDbLine
 10
157.5899044469
 20
115.362390707
 30
0.0
 11
156.5899044469
 21
115.362390707
 31
0.0
  0
ARC
  5
298
330
261
100
AcDbEntity
  8
AP_563_708MM
  6
Continuous
 62
     7
100
AcDbCircle
 10
150.1899044469
 20
125.862390707
 30
0.0
 40
0.5000000000000004
100
AcDbArc
 50
72.5423968763
 51
90.0
  0
LINE
  5
299
330
261
100
AcDbEntity
  8
AP_563_708MM
  6
Continuous
 62
     7
100
AcDbLine
 10
150.6899044469
 20
115.862390707
 30
0.0
 11
150.6899044469
 21
115.362390707
 31
0.0
  0
LINE
  5
29A
330
261
100
AcDbEntity
  8
AP_563_708MM
  6
Continuous
 62
     7
100
AcDbLine
 10
149.6899044469
 20
115.362390707
 30
0.0
 11
149.6899044469
 21
126.362390707
 31
0.0
  0
LINE
  5
29B
330
261
100
AcDbEntity
  8
AP_563_708MM
  6
Continuous
 62
     7
100
AcDbLine
 10
149.6899044469
 20
126.362390707
 30
0.0
 11
150.1899044469
 21
126.362390707
 31
0.0
  0
LINE
  5
29C
330
261
100
AcDbEntity
  8
AP_563_708MM
  6
Continuous
 62
     7
100
AcDbLine
 10
157.0899044469
 20
126.362390707
 30
0.0
 11
157.5899044469
 21
126.362390707
 31
0.0
  0
LINE
  5
29D
330
261
100
AcDbEntity
  8
AP_563_708MM
  6
Continuous
 62
     7
100
AcDbLine
 10
157.5899044469
 20
126.362390707
 30
0.0
 11
157.5899044469
 21
115.362390707
 31
0.0
  0
ARC
  5
29E
330
261
100
AcDbEntity
  8
AP_563_708MM
  6
Continuous
 62
     7
100
AcDbCircle
 10
157.0899044469
 20
125.862390707
 30
0.0
 40
0.5000000000000004
100
AcDbArc
 50
90.0
 51
107.4576031237
  0
ARC
  5
29F
330
261
100
AcDbEntity
  8
AF_079_EINBAU
  6
Continuous
 62
     7
100
AcDbCircle
 10
153.6399044469
 20
113.362390707
 30
0.0
 40
1.0
100
AcDbArc
 50
180.0
 51
0.0
  0
LINE
  5
2A0
330
261
100
AcDbEntity
  8
AF_079_EINBAU
  6
Continuous
 62
     7
100
AcDbLine
 10
154.6399044469
 20
113.362390707
 30
0.0
 11
154.6399044469
 21
113.3784589232
 31
0.0
  0
LINE
  5
2A1
330
261
100
AcDbEntity
  8
AF_079_EINBAU
  6
Continuous
 62
     7
100
AcDbLine
 10
152.6399044469
 20
113.3784589232
 30
0.0
 11
152.6399044469
 21
113.362390707
 31
0.0
  0
LINE
  5
2A2
330
261
100
AcDbEntity
  8
AF_079_EINBAU
  6
Continuous
 62
     7
100
AcDbLine
 10
152.6399044469
 20
115.862390707
 30
0.0
 11
152.6399044469
 21
113.3784589232
 31
0.0
  0
LINE
  5
2A3
330
261
100
AcDbEntity
  8
AF_079_EINBAU
  6
Continuous
 62
     7
100
AcDbLine
 10
154.6399044469
 20
113.3784589232
 30
0.0
 11
154.6399044469
 21
115.862390707
 31
0.0
  0
ARC
  5
2A4
330
261
100
AcDbEntity
  8
AF_080
  6
Continuous
 62
     7
100
AcDbCircle
 10
156.6417991837
 20
115.5596138466
 30
0.0
 40
0.5999999999999999
100
AcDbArc
 50
180.0
 51
265.0382182102
  0
LINE
  5
2A5
330
261
100
AcDbEntity
  8
AF_080
  6
Continuous
 62
     7
100
AcDbLine
 10
156.0417991837
 20
115.862390707
 30
0.0
 11
156.0417991837
 21
115.5596138466
 31
0.0
  0
ARC
  5
2A6
330
261
100
AcDbEntity
  8
AF_080
  6
Continuous
 62
     7
100
AcDbCircle
 10
150.63800971
 20
115.5596138466
 30
0.0
 40
0.5999999999999999
100
AcDbArc
 50
274.9617817898
 51
0.0
  0
LINE
  5
2A7
330
261
100
AcDbEntity
  8
AF_080
  6
Continuous
 62
     7
100
AcDbLine
 10
151.23800971
 20
115.5596138466
 30
0.0
 11
151.23800971
 21
115.862390707
 31
0.0
  0
LINE
  5
2A8
330
261
100
AcDbEntity
  8
AP_562_M
  6
Continuous
 62
     7
100
AcDbLine
 10
159.0399044469
 20
131.862390707
 30
0.0
 11
148.2399044469
 21
131.862390707
 31
0.0
  0
LINE
  5
2A9
330
261
100
AcDbEntity
  8
AP_562_M
  6
Continuous
 62
     7
100
AcDbLine
 10
148.8899044469
 20
128.562390707
 30
0.0
 11
148.8899044469
 21
129.362390707
 31
0.0
  0
ARC
  5
2AA
330
261
100
AcDbEntity
  8
AP_562_M
  6
Continuous
 62
     7
100
AcDbCircle
 10
148.8899044469
 20
128.212390707
 30
0.0
 40
0.3499999999999996
100
AcDbArc
 50
90.0
 51
270.0
  0
LINE
  5
2AB
330
261
100
AcDbEntity
  8
AP_562_M
  6
Continuous
 62
     7
100
AcDbLine
 10
148.4399044469
 20
126.862390707
 30
0.0
 11
149.9399044469
 21
126.862390707
 31
0.0
  0
ARC
  5
2AC
330
261
100
AcDbEntity
  8
AP_562_M
  6
Continuous
 62
     7
100
AcDbCircle
 10
148.4399044469
 20
126.662390707
 30
0.0
 40
0.1999999999999988
100
AcDbArc
 50
165.5512048964
 51
180.0
  0
ARC
  5
2AD
330
261
100
AcDbEntity
  8
AP_562_M
  6
HIDDEN2
 62
     7
100
AcDbCircle
 10
148.4399044469
 20
126.662390707
 30
0.0
 40
0.1999999999999988
100
AcDbArc
 50
93.4623999835
 51
165.5512048964
  0
ARC
  5
2AE
330
261
100
AcDbEntity
  8
AP_562_M
  6
Continuous
 62
     7
100
AcDbCircle
 10
148.4399044469
 20
126.662390707
 30
0.0
 40
0.1999999999999988
100
AcDbArc
 50
90.0
 51
93.4623999835
  0
LINE
  5
2AF
330
261
100
AcDbEntity
  8
AP_562_M
  6
Continuous
 62
     7
100
AcDbLine
 10
148.2399044469
 20
102.062390707
 30
0.0
 11
148.2399044469
 21
126.662390707
 31
0.0
  0
ARC
  5
2B0
330
261
100
AcDbEntity
  8
AP_562_M
  6
Continuous
 62
     7
100
AcDbCircle
 10
148.0399044469
 20
102.062390707
 30
0.0
 40
0.1999999999999988
100
AcDbArc
 50
270.0
 51
0.0
  0
LINE
  5
2B1
330
261
100
AcDbEntity
  8
AP_562_M
  6
Continuous
 62
     7
100
AcDbLine
 10
147.4399044469
 20
101.862390707
 30
0.0
 11
148.0399044469
 21
101.862390707
 31
0.0
  0
ARC
  5
2B2
330
261
100
AcDbEntity
  8
AP_562_M
  6
Continuous
 62
     7
100
AcDbCircle
 10
147.4399044469
 20
102.062390707
 30
0.0
 40
0.1999999999999997
100
AcDbArc
 50
180.0
 51
270.0
  0
LINE
  5
2B3
330
261
100
AcDbEntity
  8
AP_562_M
  6
Continuous
 62
     7
100
AcDbLine
 10
147.2399044469
 20
130.862390707
 30
0.0
 11
147.2399044469
 21
102.062390707
 31
0.0
  0
ARC
  5
2B4
330
261
100
AcDbEntity
  8
AP_562_M
  6
Continuous
 62
     7
100
AcDbCircle
 10
148.2399044469
 20
130.862390707
 30
0.0
 40
1.000000000000001
100
AcDbArc
 50
90.0
 51
180.0
  0
LINE
  5
2B5
330
261
100
AcDbEntity
  8
AP_562_M
  6
Continuous
 62
     7
100
AcDbLine
 10
148.4399044469
 20
130.862390707
 30
0.0
 11
158.8399044469
 21
130.862390707
 31
0.0
  0
ARC
  5
2B6
330
261
100
AcDbEntity
  8
AP_562_M
  6
Continuous
 62
     7
100
AcDbCircle
 10
148.4399044469
 20
130.662390707
 30
0.0
 40
0.1999999999999997
100
AcDbArc
 50
90.0
 51
180.0
  0
LINE
  5
2B7
330
261
100
AcDbEntity
  8
AP_562_M
  6
Continuous
 62
     7
100
AcDbLine
 10
150.1399044469
 20
127.062390707
 30
0.0
 11
150.1399044469
 21
127.662390707
 31
0.0
  0
ARC
  5
2B8
330
261
100
AcDbEntity
  8
AP_562_M
  6
Continuous
 62
     7
100
AcDbCircle
 10
149.9399044469
 20
127.062390707
 30
0.0
 40
0.1999999999999988
100
AcDbArc
 50
270.0
 51
0.0
  0
LINE
  5
2B9
330
261
100
AcDbEntity
  8
AP_562_M
  6
Continuous
 62
     7
100
AcDbLine
 10
149.9399044469
 20
127.862390707
 30
0.0
 11
148.8899044469
 21
127.862390707
 31
0.0
  0
ARC
  5
2BA
330
261
100
AcDbEntity
  8
AP_562_M
  6
Continuous
 62
     7
100
AcDbCircle
 10
149.9399044469
 20
127.662390707
 30
0.0
 40
0.2000000000000001
100
AcDbArc
 50
0.0
 51
90.0
  0
LINE
  5
2BB
330
261
100
AcDbEntity
  8
AP_562_M
  6
Continuous
 62
     7
100
AcDbLine
 10
148.6899044469
 20
129.562390707
 30
0.0
 11
148.4399044469
 21
129.562390707
 31
0.0
  0
ARC
  5
2BC
330
261
100
AcDbEntity
  8
AP_562_M
  6
Continuous
 62
     7
100
AcDbCircle
 10
148.6899044469
 20
129.362390707
 30
0.0
 40
0.1999999999999997
100
AcDbArc
 50
0.0
 51
90.0
  0
LINE
  5
2BD
330
261
100
AcDbEntity
  8
AP_562_M
  6
Continuous
 62
     7
100
AcDbLine
 10
148.2399044469
 20
129.762390707
 30
0.0
 11
148.2399044469
 21
130.662390707
 31
0.0
  0
ARC
  5
2BE
330
261
100
AcDbEntity
  8
AP_562_M
  6
Continuous
 62
     7
100
AcDbCircle
 10
148.4399044469
 20
129.762390707
 30
0.0
 40
0.2000000000000005
100
AcDbArc
 50
180.0
 51
270.0
  0
ARC
  5
2BF
330
261
100
AcDbEntity
  8
AP_562_M
  6
Continuous
 62
     7
100
AcDbCircle
 10
159.0399044469
 20
130.862390707
 30
0.0
 40
1.000000000000001
100
AcDbArc
 50
0.0
 51
90.0
  0
LINE
  5
2C0
330
261
100
AcDbEntity
  8
AP_562_M
  6
Continuous
 62
     7
100
AcDbLine
 10
160.0399044469
 20
130.862390707
 30
0.0
 11
160.0399044469
 21
102.062390707
 31
0.0
  0
ARC
  5
2C1
330
261
100
AcDbEntity
  8
AP_562_M
  6
Continuous
 62
     7
100
AcDbCircle
 10
159.8399044469
 20
102.062390707
 30
0.0
 40
0.1999999999999997
100
AcDbArc
 50
270.0
 51
0.0
  0
LINE
  5
2C2
330
261
100
AcDbEntity
  8
AP_562_M
  6
Continuous
 62
     7
100
AcDbLine
 10
159.8399044469
 20
101.862390707
 30
0.0
 11
159.2399044469
 21
101.862390707
 31
0.0
  0
ARC
  5
2C3
330
261
100
AcDbEntity
  8
AP_562_M
  6
Continuous
 62
     7
100
AcDbCircle
 10
159.2399044469
 20
102.062390707
 30
0.0
 40
0.1999999999999988
100
AcDbArc
 50
180.0
 51
270.0
  0
LINE
  5
2C4
330
261
100
AcDbEntity
  8
AP_562_M
  6
Continuous
 62
     7
100
AcDbLine
 10
159.0399044469
 20
102.062390707
 30
0.0
 11
159.0399044469
 21
126.662390707
 31
0.0
  0
ARC
  5
2C5
330
261
100
AcDbEntity
  8
AP_562_M
  6
Continuous
 62
     7
100
AcDbCircle
 10
158.8399044469
 20
126.662390707
 30
0.0
 40
0.1999999999999988
100
AcDbArc
 50
0.0
 51
14.4487951036
  0
ARC
  5
2C6
330
261
100
AcDbEntity
  8
AP_562_M
  6
HIDDEN2
 62
     7
100
AcDbCircle
 10
158.8399044469
 20
126.662390707
 30
0.0
 40
0.1999999999999988
100
AcDbArc
 50
14.4487951036
 51
86.5376000165
  0
ARC
  5
2C7
330
261
100
AcDbEntity
  8
AP_562_M
  6
Continuous
 62
     7
100
AcDbCircle
 10
158.8399044469
 20
126.662390707
 30
0.0
 40
0.1999999999999988
100
AcDbArc
 50
86.5376000165
 51
90.0
  0
LINE
  5
2C8
330
261
100
AcDbEntity
  8
AP_562_M
  6
Continuous
 62
     7
100
AcDbLine
 10
158.8399044469
 20
126.862390707
 30
0.0
 11
157.3399044469
 21
126.862390707
 31
0.0
  0
LINE
  5
2C9
330
261
100
AcDbEntity
  8
AP_562_M
  6
Continuous
 62
     7
100
AcDbLine
 10
157.1399044469
 20
127.062390707
 30
0.0
 11
157.1399044469
 21
127.662390707
 31
0.0
  0
LINE
  5
2CA
330
261
100
AcDbEntity
  8
AP_562_M
  6
Continuous
 62
     7
100
AcDbLine
 10
157.3399044469
 20
127.862390707
 30
0.0
 11
158.3899044469
 21
127.862390707
 31
0.0
  0
ARC
  5
2CB
330
261
100
AcDbEntity
  8
AP_562_M
  6
Continuous
 62
     7
100
AcDbCircle
 10
158.3899044469
 20
128.212390707
 30
0.0
 40
0.3499999999999996
100
AcDbArc
 50
270.0
 51
90.0
  0
LINE
  5
2CC
330
261
100
AcDbEntity
  8
AP_562_M
  6
Continuous
 62
     7
100
AcDbLine
 10
158.3899044469
 20
128.562390707
 30
0.0
 11
158.3899044469
 21
129.362390707
 31
0.0
  0
LINE
  5
2CD
330
261
100
AcDbEntity
  8
AP_562_M
  6
Continuous
 62
     7
100
AcDbLine
 10
158.5899044469
 20
129.562390707
 30
0.0
 11
158.8399044469
 21
129.562390707
 31
0.0
  0
LINE
  5
2CE
330
261
100
AcDbEntity
  8
AP_562_M
  6
Continuous
 62
     7
100
AcDbLine
 10
159.0399044469
 20
129.762390707
 30
0.0
 11
159.0399044469
 21
130.662390707
 31
0.0
  0
ARC
  5
2CF
330
261
100
AcDbEntity
  8
AP_562_M
  6
Continuous
 62
     7
100
AcDbCircle
 10
158.8399044469
 20
130.662390707
 30
0.0
 40
0.1999999999999997
100
AcDbArc
 50
0.0
 51
90.0
  0
ARC
  5
2D0
330
261
100
AcDbEntity
  8
AP_562_M
  6
Continuous
 62
     7
100
AcDbCircle
 10
157.3399044469
 20
127.062390707
 30
0.0
 40
0.1999999999999988
100
AcDbArc
 50
180.0
 51
270.0
  0
ARC
  5
2D1
330
261
100
AcDbEntity
  8
AP_562_M
  6
Continuous
 62
     7
100
AcDbCircle
 10
157.3399044469
 20
127.662390707
 30
0.0
 40
0.2000000000000001
100
AcDbArc
 50
90.0
 51
180.0
  0
ARC
  5
2D2
330
261
100
AcDbEntity
  8
AP_562_M
  6
Continuous
 62
     7
100
AcDbCircle
 10
158.5899044469
 20
129.362390707
 30
0.0
 40
0.1999999999999997
100
AcDbArc
 50
90.0
 51
180.0
  0
ARC
  5
2D3
330
261
100
AcDbEntity
  8
AP_562_M
  6
Continuous
 62
     7
100
AcDbCircle
 10
158.8399044469
 20
129.762390707
 30
0.0
 40
0.2000000000000005
100
AcDbArc
 50
270.0
 51
0.0
  0
LINE
  5
2D4
330
261
100
AcDbEntity
  8
AJ_359
  6
Continuous
 62
     7
100
AcDbLine
 10
156.9399044469
 20
129.362390707
 30
0.0
 11
158.1399044469
 21
129.362390707
 31
0.0
  0
LINE
  5
2D5
330
261
100
AcDbEntity
  8
AJ_359
  6
Continuous
 62
     7
100
AcDbLine
 10
158.1399044469
 20
129.362390707
 30
0.0
 11
158.1399044469
 21
127.862390707
 31
0.0
  0
LINE
  5
2D6
330
261
100
AcDbEntity
  8
AJ_359
  6
Continuous
 62
     7
100
AcDbLine
 10
157.3399044469
 20
127.862390707
 30
0.0
 11
156.9399044469
 21
127.862390707
 31
0.0
  0
LINE
  5
2D7
330
261
100
AcDbEntity
  8
AJ_359
  6
Continuous
 62
     7
100
AcDbLine
 10
150.3399044469
 20
127.862390707
 30
0.0
 11
149.9399044469
 21
127.862390707
 31
0.0
  0
LINE
  5
2D8
330
261
100
AcDbEntity
  8
AJ_359
  6
Continuous
 62
     7
100
AcDbLine
 10
149.1399044469
 20
127.862390707
 30
0.0
 11
149.1399044469
 21
129.362390707
 31
0.0
  0
LINE
  5
2D9
330
261
100
AcDbEntity
  8
AJ_359
  6
Continuous
 62
     7
100
AcDbLine
 10
150.3399044469
 20
129.362390707
 30
0.0
 11
149.1399044469
 21
129.362390707
 31
0.0
  0
LINE
  5
2DA
330
261
100
AcDbEntity
  8
AJ_359
  6
Continuous
 62
     7
100
AcDbLine
 10
150.3399044469
 20
129.362390707
 30
0.0
 11
156.9399044469
 21
129.362390707
 31
0.0
  0
LINE
  5
2DB
330
261
100
AcDbEntity
  8
AJ_359
  6
Continuous
 62
     7
100
AcDbLine
 10
156.9399044469
 20
115.8773551213
 30
0.0
 11
156.9399044469
 21
115.862390707
 31
0.0
  0
LINE
  5
2DC
330
261
100
AcDbEntity
  8
AJ_359
  6
Continuous
 62
     7
100
AcDbLine
 10
156.9399044469
 20
129.3474262928
 30
0.0
 11
156.9399044469
 21
115.8773551213
 31
0.0
  0
LINE
  5
2DD
330
261
100
AcDbEntity
  8
AJ_359
  6
Continuous
 62
     7
100
AcDbLine
 10
156.9399044469
 20
129.362390707
 30
0.0
 11
156.9399044469
 21
129.3474262928
 31
0.0
  0
LINE
  5
2DE
330
261
100
AcDbEntity
  8
AJ_359
  6
Continuous
 62
     7
100
AcDbLine
 10
150.3399044469
 20
115.862390707
 30
0.0
 11
150.3399044469
 21
115.8773551213
 31
0.0
  0
LINE
  5
2DF
330
261
100
AcDbEntity
  8
AJ_359
  6
Continuous
 62
     7
100
AcDbLine
 10
150.3399044469
 20
115.8773551213
 30
0.0
 11
150.3399044469
 21
129.3474262928
 31
0.0
  0
LINE
  5
2E0
330
261
100
AcDbEntity
  8
AJ_359
  6
Continuous
 62
     7
100
AcDbLine
 10
150.3399044469
 20
129.3474262928
 30
0.0
 11
150.3399044469
 21
129.362390707
 31
0.0
  0
LINE
  5
2E1
330
261
100
AcDbEntity
  8
AJ_359
  6
Continuous
 62
     7
100
AcDbLine
 10
156.9399044469
 20
115.862390707
 30
0.0
 11
150.3399044469
 21
115.862390707
 31
0.0
  0
SPLINE
  5
2E2
330
261
100
AcDbEntity
  8
AJ_359
  6
Continuous
 62
     7
100
AcDbSpline
210
0.0
220
0.0
230
1.0
 70
     8
 71
     3
 72
    20
 73
    16
 74
     0
 42
0.000000001
 43
0.0000000001
 40
0.0
 40
0.0
 40
0.0
 40
0.0
 40
0.1920626564234774
 40
0.1920626564234774
 40
0.1920626564234774
 40
0.4259408065429229
 40
0.4259408065429229
 40
0.4259408065429229
 40
0.7449077213504677
 40
0.7449077213504677
 40
0.7449077213504677
 40
0.9945387088065732
 40
0.9945387088065732
 40
0.9945387088065732
 40
1.0
 40
1.0
 40
1.0
 40
1.0
 10
150.3399044468903
 20
115.8773551212794
 30
0.0
 10
150.3399044468903
 20
115.8899109599438
 30
0.0
 10
150.3482604501452
 20
115.9101486887283
 30
0.0
 10
150.3623624266055
 20
115.9345158225651
 30
0.0
 10
150.3795417540439
 20
115.9642003828886
 30
0.0
 10
150.405567839185
 20
116.000815054424
 30
0.0
 10
150.4362779422754
 20
116.0399887481025
 30
0.0
 10
150.4780509525395
 20
116.0932742451685
 30
0.0
 10
150.5297183666126
 20
116.152959978989
 30
0.0
 10
150.5853645249173
 20
116.2135323720635
 30
0.0
 10
150.629182320073
 20
116.2612292624274
 30
0.0
 10
150.6762621118355
 20
116.3103553250582
 30
0.0
 10
150.7247332035565
 20
116.3591975764935
 30
0.0
 10
150.7257894839036
 20
116.3602619451403
 30
0.0
 10
150.7268465711521
 20
116.361326327304
 30
0.0
 10
150.7279044468904
 20
116.3623907070248
 30
0.0
  0
SPLINE
  5
2E3
330
261
100
AcDbEntity
  8
AJ_359
  6
Continuous
 62
     7
100
AcDbSpline
210
0.0
220
0.0
230
1.0
 70
     8
 71
     3
 72
    20
 73
    16
 74
     0
 42
0.000000001
 43
0.0000000001
 40
0.0
 40
0.0
 40
0.0
 40
0.0
 40
0.0054612911934266
 40
0.0054612911934266
 40
0.0054612911934266
 40
0.2550922786495285
 40
0.2550922786495285
 40
0.2550922786495285
 40
0.5740591934570767
 40
0.5740591934570767
 40
0.5740591934570767
 40
0.8079373435765225
 40
0.8079373435765225
 40
0.8079373435765225
 40
1.0
 40
1.0
 40
1.0
 40
1.0
 10
156.5519044468903
 20
116.3623907070248
 30
0.0
 10
156.5529623226286
 20
116.361326327304
 30
0.0
 10
156.554019409877
 20
116.3602619451402
 30
0.0
 10
156.5550756902242
 20
116.3591975764935
 30
0.0
 10
156.6035467819456
 20
116.3103553250586
 30
0.0
 10
156.6506265737077
 20
116.2612292624274
 30
0.0
 10
156.6944443688633
 20
116.2135323720636
 30
0.0
 10
156.750090527168
 20
116.152959978989
 30
0.0
 10
156.8017579412411
 20
116.0932742451685
 30
0.0
 10
156.8435309515053
 20
116.0399887481025
 30
0.0
 10
156.8742410545957
 20
116.000815054424
 30
0.0
 10
156.9002671397368
 20
115.9642003828886
 30
0.0
 10
156.9174464671752
 20
115.9345158225651
 30
0.0
 10
156.9315484436355
 20
115.9101486887283
 30
0.0
 10
156.9399044468903
 20
115.8899109599438
 30
0.0
 10
156.9399044468903
 20
115.8773551212794
 30
0.0
  0
SPLINE
  5
2E4
330
261
100
AcDbEntity
  8
AJ_359
  6
Continuous
 62
     7
100
AcDbSpline
210
0.0
220
0.0
230
1.0
 70
     8
 71
     3
 72
    20
 73
    16
 74
     0
 42
0.000000001
 43
0.0000000001
 40
0.0
 40
0.0
 40
0.0
 40
0.0
 40
0.1920626564234774
 40
0.1920626564234774
 40
0.1920626564234774
 40
0.4259408065429225
 40
0.4259408065429225
 40
0.4259408065429225
 40
0.7449077213504675
 40
0.7449077213504675
 40
0.7449077213504675
 40
0.9945387088065751
 40
0.9945387088065751
 40
0.9945387088065751
 40
1.0
 40
1.0
 40
1.0
 40
1.0
 10
150.3399044468903
 20
129.3474262927703
 30
0.0
 10
150.3399044468903
 20
129.3348704541058
 30
0.0
 10
150.3482604501452
 20
129.3146327253213
 30
0.0
 10
150.3623624266055
 20
129.2902655914845
 30
0.0
 10
150.3795417540439
 20
129.260581031161
 30
0.0
 10
150.405567839185
 20
129.2239663596256
 30
0.0
 10
150.4362779422754
 20
129.1847926659471
 30
0.0
 10
150.4780509525395
 20
129.1315071688811
 30
0.0
 10
150.5297183666126
 20
129.0718214350606
 30
0.0
 10
150.5853645249173
 20
129.0112490419861
 30
0.0
 10
150.629182320073
 20
128.9635521516222
 30
0.0
 10
150.6762621118355
 20
128.9144260889914
 30
0.0
 10
150.7247332035565
 20
128.865583837556
 30
0.0
 10
150.7257894839036
 20
128.8645194689094
 30
0.0
 10
150.7268465711521
 20
128.8634550867456
 30
0.0
 10
150.7279044468904
 20
128.8623907070248
 30
0.0
  0
SPLINE
  5
2E5
330
261
100
AcDbEntity
  8
AJ_359
  6
Continuous
 62
     7
100
AcDbSpline
210
0.0
220
0.0
230
1.0
 70
     8
 71
     3
 72
    20
 73
    16
 74
     0
 42
0.000000001
 43
0.0000000001
 40
0.0
 40
0.0
 40
0.0
 40
0.0
 40
0.0054612911934254
 40
0.0054612911934254
 40
0.0054612911934254
 40
0.2550922786495261
 40
0.2550922786495261
 40
0.2550922786495261
 40
0.5740591934570768
 40
0.5740591934570768
 40
0.5740591934570768
 40
0.8079373435765171
 40
0.8079373435765171
 40
0.8079373435765171
 40
1.0
 40
1.0
 40
1.0
 40
1.0
 10
156.5519044468903
 20
128.8623907070248
 30
0.0
 10
156.5529623226286
 20
128.8634550867456
 30
0.0
 10
156.5540194098769
 20
128.8645194689095
 30
0.0
 10
156.5550756902241
 20
128.8655838375562
 30
0.0
 10
156.603546781947
 20
128.9144260889895
 30
0.0
 10
156.6506265737077
 20
128.9635521516222
 30
0.0
 10
156.6944443688633
 20
129.011249041986
 30
0.0
 10
156.750090527168
 20
129.0718214350606
 30
0.0
 10
156.8017579412411
 20
129.1315071688811
 30
0.0
 10
156.8435309515053
 20
129.1847926659471
 30
0.0
 10
156.8742410545957
 20
129.2239663596256
 30
0.0
 10
156.9002671397368
 20
129.260581031161
 30
0.0
 10
156.9174464671752
 20
129.2902655914845
 30
0.0
 10
156.9315484436355
 20
129.3146327253213
 30
0.0
 10
156.9399044468904
 20
129.3348704541058
 30
0.0
 10
156.9399044468904
 20
129.3474262927703
 30
0.0
  0
ARC
  5
2E6
330
261
100
AcDbEntity
  8
AJ_359
  6
Continuous
 62
     7
100
AcDbCircle
 10
153.6399044469
 20
123.862390707
 30
0.0
 40
3.75
100
AcDbArc
 50
151.6423634237
 51
208.3576365763
  0
ARC
  5
2E7
330
261
100
AcDbEntity
  8
AJ_359
  6
Continuous
 62
     7
100
AcDbCircle
 10
153.6399044469
 20
123.862390707
 30
0.0
 40
3.75
100
AcDbArc
 50
331.6423634237
 51
28.3576365763
  0
ARC
  5
2E8
330
261
100
AcDbEntity
  8
AP_592_703MM
  6
Continuous
 62
     7
100
AcDbCircle
 10
153.6399044469
 20
101.2120256355
 30
0.0
 40
3.900000000000001
100
AcDbArc
 50
29.8449626974
 51
150.155037305
  0
ARC
  5
2E9
330
261
100
AcDbEntity
  8
AP_592_703MM
  6
Continuous
 62
     7
100
AcDbCircle
 10
153.6399044468
 20
107.3620256361
 30
0.0
 40
5.400000000000002
100
AcDbArc
 50
231.2122159736
 51
308.7877840288
  0
LINE
  5
2EA
330
261
100
AcDbEntity
  8
AP_592_703MM
  6
Continuous
 62
     7
100
AcDbLine
 10
150.6278537701
 20
110.3599891128
 30
0.0
 11
151.0733725973
 21
110.3599891128
 31
0.0
  0
ARC
  5
2EB
330
261
100
AcDbEntity
  8
AP_592_703MM
  6
Continuous
 62
     7
100
AcDbCircle
 10
151.0733725973
 20
109.6599891128
 30
0.0
 40
0.6999999999999993
100
AcDbArc
 50
270.0
 51
90.0
  0
LINE
  5
2EC
330
261
100
AcDbEntity
  8
AP_592_703MM
  6
Continuous
 62
     7
100
AcDbLine
 10
151.0733725973
 20
108.9599891128
 30
0.0
 11
150.6278537701
 21
108.9599891128
 31
0.0
  0
ARC
  5
2ED
330
261
100
AcDbEntity
  8
AP_592_703MM
  6
Continuous
 62
     7
100
AcDbCircle
 10
150.6278537701
 20
109.6599891128
 30
0.0
 40
0.7000000000000027
100
AcDbArc
 50
90.0
 51
270.0
  0
LINE
  5
2EE
330
261
100
AcDbEntity
  8
AP_592_703MM
  6
Continuous
 62
     7
100
AcDbLine
 10
156.2064362962
 20
108.9599891128
 30
0.0
 11
156.6519551234
 21
108.9599891128
 31
0.0
  0
ARC
  5
2EF
330
261
100
AcDbEntity
  8
AP_592_703MM
  6
Continuous
 62
     7
100
AcDbCircle
 10
156.6519551234
 20
109.6599891128
 30
0.0
 40
0.7000000000000027
100
AcDbArc
 50
270.0
 51
90.0
  0
LINE
  5
2F0
330
261
100
AcDbEntity
  8
AP_592_703MM
  6
Continuous
 62
     7
100
AcDbLine
 10
156.6519551234
 20
110.3599891128
 30
0.0
 11
156.2064362962
 21
110.3599891128
 31
0.0
  0
ARC
  5
2F1
330
261
100
AcDbEntity
  8
AP_592_703MM
  6
Continuous
 62
     7
100
AcDbCircle
 10
156.2064362962
 20
109.6599891128
 30
0.0
 40
0.6999999999999993
100
AcDbArc
 50
90.0
 51
270.0
  0
LINE
  5
2F2
330
261
100
AcDbEntity
  8
AP_592_703MM
  6
Continuous
 62
     7
100
AcDbLine
 10
157.6672942557
 20
114.5097577669
 30
0.0
 11
157.5897759325
 21
112.674894339
 31
0.0
  0
ARC
  5
2F3
330
261
100
AcDbEntity
  8
AP_592_703MM
  6
Continuous
 62
     7
100
AcDbCircle
 10
157.6736257271
 20
114.6596240822
 30
0.0
 40
0.150000000000004
100
AcDbArc
 50
87.5808373205
 51
267.5808373205
  0
LINE
  5
2F4
330
261
100
AcDbEntity
  8
AP_592_703MM
  6
Continuous
 62
     7
100
AcDbLine
 10
158.1891462245
 20
126.8620256363
 30
0.0
 11
157.6799571986
 21
114.8094903975
 31
0.0
  0
LINE
  5
2F5
330
261
100
AcDbEntity
  8
AP_592_703MM
  6
Continuous
 62
     7
100
AcDbLine
 10
159.039904447
 20
126.8620256363
 30
0.0
 11
158.1891462245
 21
126.8620256363
 31
0.0
  0
LINE
  5
2F6
330
261
100
AcDbEntity
  8
AP_592_703MM
  6
Continuous
 62
     7
100
AcDbLine
 10
158.5967353481
 20
116.3721860893
 30
0.0
 11
159.039904447
 21
126.8620256363
 31
0.0
  0
LINE
  5
2F7
330
261
100
AcDbEntity
  8
AP_592_703MM
  6
Continuous
 62
     7
100
AcDbLine
 10
158.3364057033
 20
116.1329613494
 30
0.0
 11
158.5967353481
 21
116.3721860893
 31
0.0
  0
LINE
  5
2F8
330
261
100
AcDbEntity
  8
AP_592_703MM
  6
Continuous
 62
     7
100
AcDbLine
 10
158.2097762738
 20
113.135635043
 30
0.0
 11
158.3364057033
 21
116.1329613494
 31
0.0
  0
LINE
  5
2F9
330
261
100
AcDbEntity
  8
AP_592_703MM
  6
Continuous
 62
     7
100
AcDbLine
 10
158.4399062458
 20
112.8852025255
 30
0.0
 11
158.2097762738
 21
113.135635043
 31
0.0
  0
LINE
  5
2FA
330
261
100
AcDbEntity
  8
AP_592_703MM
  6
Continuous
 62
     7
100
AcDbLine
 10
158.4399062458
 20
104.6244727083
 30
0.0
 11
158.4399062458
 21
112.8852025255
 31
0.0
  0
ARC
  5
2FB
330
261
100
AcDbEntity
  8
AP_592_703MM
  6
Continuous
 62
     7
100
AcDbCircle
 10
156.162486524
 20
104.6244727083
 30
0.0
 40
2.277419721799488
100
AcDbArc
 50
312.6597459593
 51
0.0
  0
ARC
  5
2FC
330
261
100
AcDbEntity
  8
AP_592_703MM
  6
Continuous
 62
     7
100
AcDbCircle
 10
153.6399053981
 20
107.3620242404
 30
0.0
 40
5.999999999954547
100
AcDbArc
 50
226.0996692712
 51
312.6597459594
  0
ARC
  5
2FD
330
261
100
AcDbEntity
  8
AP_592_703MM
  6
Continuous
 62
     7
100
AcDbCircle
 10
150.9259367901
 20
104.5418261602
 30
0.0
 40
2.086032343338887
100
AcDbArc
 50
180.0
 51
226.0996692712
  0
LINE
  5
2FE
330
261
100
AcDbEntity
  8
AP_592_703MM
  6
Continuous
 62
     7
100
AcDbLine
 10
148.8399044468
 20
112.8852044829
 30
0.0
 11
148.8399044468
 21
104.5418261602
 31
0.0
  0
LINE
  5
2FF
330
261
100
AcDbEntity
  8
AP_592_703MM
  6
Continuous
 62
     7
100
AcDbLine
 10
149.07003262
 20
113.135635043
 30
0.0
 11
148.8399044468
 21
112.8852044829
 31
0.0
  0
LINE
  5
300
330
261
100
AcDbEntity
  8
AP_592_703MM
  6
Continuous
 62
     7
100
AcDbLine
 10
148.9434031904
 20
116.1329613494
 30
0.0
 11
149.07003262
 21
113.135635043
 31
0.0
  0
LINE
  5
301
330
261
100
AcDbEntity
  8
AP_592_703MM
  6
Continuous
 62
     7
100
AcDbLine
 10
148.6830735456
 20
116.3721860893
 30
0.0
 11
148.9434031904
 21
116.1329613494
 31
0.0
  0
LINE
  5
302
330
261
100
AcDbEntity
  8
AP_592_703MM
  6
Continuous
 62
     7
100
AcDbLine
 10
148.2399044468
 20
126.8620256363
 30
0.0
 11
148.6830735456
 21
116.3721860893
 31
0.0
  0
LINE
  5
303
330
261
100
AcDbEntity
  8
AP_592_703MM
  6
Continuous
 62
     7
100
AcDbLine
 10
149.090662669
 20
126.8620256363
 30
0.0
 11
148.2399044468
 21
126.8620256363
 31
0.0
  0
LINE
  5
304
330
261
100
AcDbEntity
  8
AP_592_703MM
  6
Continuous
 62
     7
100
AcDbLine
 10
149.5998516949
 20
114.8094903975
 30
0.0
 11
149.090662669
 21
126.8620256363
 31
0.0
  0
ARC
  5
305
330
261
100
AcDbEntity
  8
AP_592_703MM
  6
Continuous
 62
     7
100
AcDbCircle
 10
149.6061831664
 20
114.6596240822
 30
0.0
 40
0.1500000000000005
100
AcDbArc
 50
272.4191626795
 51
92.4191626795
  0
LINE
  5
306
330
261
100
AcDbEntity
  8
AP_592_703MM
  6
Continuous
 62
     7
100
AcDbLine
 10
149.690032961
 20
112.674894339
 30
0.0
 11
149.6125146379
 21
114.5097577669
 31
0.0
  0
LINE
  5
307
330
261
100
AcDbEntity
  8
AP_592_703MM
  6
Continuous
 62
     7
100
AcDbLine
 10
149.690032961
 20
111.0103064809
 30
0.0
 11
149.690032961
 21
112.674894339
 31
0.0
  0
LINE
  5
308
330
261
100
AcDbEntity
  8
AP_592_703MM
  6
Continuous
 62
     7
100
AcDbLine
 10
150.6899044468
 20
111.0103064809
 30
0.0
 11
149.690032961
 21
111.0103064809
 31
0.0
  0
LINE
  5
309
330
261
100
AcDbEntity
  8
AP_592_703MM
  6
Continuous
 62
     7
100
AcDbLine
 10
150.6899044468
 20
111.1602368726
 30
0.0
 11
150.6899044468
 21
111.0103064809
 31
0.0
  0
ARC
  5
30A
330
261
100
AcDbEntity
  8
AP_592_703MM
  6
Continuous
 62
     7
100
AcDbCircle
 10
150.9399044468
 20
111.1602368726
 30
0.0
 40
0.2500000000000003
100
AcDbArc
 50
50.0
 51
180.0
  0
LINE
  5
30B
330
261
100
AcDbEntity
  8
AP_592_703MM
  6
Continuous
 62
     7
100
AcDbLine
 10
152.0138375213
 20
110.5854518482
 30
0.0
 11
151.1006013492
 21
111.3517479834
 31
0.0
  0
ARC
  5
30C
330
261
100
AcDbEntity
  8
AP_592_703MM
  6
Continuous
 62
     7
100
AcDbCircle
 10
151.6924437165
 20
110.2024296266
 30
0.0
 40
0.5
100
AcDbArc
 50
0.0
 51
50.0
  0
LINE
  5
30D
330
261
100
AcDbEntity
  8
AP_592_703MM
  6
Continuous
 62
     7
100
AcDbLine
 10
152.1924437165
 20
109.1168185378
 30
0.0
 11
152.1924437165
 21
110.2024296266
 31
0.0
  0
ARC
  5
30E
330
261
100
AcDbEntity
  8
AP_592_703MM
  6
Continuous
 62
     7
100
AcDbCircle
 10
151.6924437165
 20
109.1168185378
 30
0.0
 40
0.5000000000000011
100
AcDbArc
 50
310.0
 51
0.0
  0
LINE
  5
30F
330
261
100
AcDbEntity
  8
AP_592_703MM
  6
Continuous
 62
     7
100
AcDbLine
 10
151.1006013492
 20
107.967500181
 30
0.0
 11
152.0138375213
 21
108.7337963162
 31
0.0
  0
ARC
  5
310
330
261
100
AcDbEntity
  8
AP_592_703MM
  6
Continuous
 62
     7
100
AcDbCircle
 10
150.9399044468
 20
108.1590112918
 30
0.0
 40
0.2499999999999999
100
AcDbArc
 50
179.9840394803
 51
310.0
  0
LINE
  5
311
330
261
100
AcDbEntity
  8
AP_592_703MM
  6
Continuous
 62
     7
100
AcDbLine
 10
150.6853352414
 20
108.3089416835
 30
0.0
 11
150.6899044565
 21
108.1590809327
 31
0.0
  0
LINE
  5
312
330
261
100
AcDbEntity
  8
AP_592_703MM
  6
Continuous
 62
     7
100
AcDbLine
 10
149.6900329616
 20
108.3089416835
 30
0.0
 11
150.6853352414
 21
108.3089416835
 31
0.0
  0
LINE
  5
313
330
261
100
AcDbEntity
  8
AP_592_703MM
  6
Continuous
 62
     7
100
AcDbLine
 10
149.6900329616
 20
103.6764177713
 30
0.0
 11
149.6900329616
 21
108.3089416835
 31
0.0
  0
ARC
  5
314
330
261
100
AcDbEntity
  8
AP_592_703MM
  6
Continuous
 62
     7
100
AcDbCircle
 10
149.7458932152
 20
103.6208123933
 30
0.0
 40
0.0788183100623406
100
AcDbArc
 50
135.1310114424
 51
328.2595820011
  0
ARC
  5
315
330
261
100
AcDbEntity
  8
AP_592_703MM
  6
Continuous
 62
     7
100
AcDbCircle
 10
153.6399044469
 20
101.2120256355
 30
0.0
 40
4.499999999999992
100
AcDbArc
 50
31.4905360333
 51
148.2595820011
  0
ARC
  5
316
330
261
100
AcDbEntity
  8
AP_592_703MM
  6
Continuous
 62
     7
100
AcDbCircle
 10
157.5339156759
 20
103.6208123908
 30
0.0
 40
0.0812664661493969
100
AcDbArc
 50
225.7153387915
 51
46.5776002129
  0
LINE
  5
317
330
261
100
AcDbEntity
  8
AP_592_703MM
  6
Continuous
 62
     7
100
AcDbLine
 10
157.5897759296
 20
108.3089416835
 30
0.0
 11
157.5897759296
 21
103.6798367126
 31
0.0
  0
LINE
  5
318
330
261
100
AcDbEntity
  8
AP_592_703MM
  6
Continuous
 62
     7
100
AcDbLine
 10
156.5944736521
 20
108.3089416835
 30
0.0
 11
157.5897759296
 21
108.3089416835
 31
0.0
  0
LINE
  5
319
330
261
100
AcDbEntity
  8
AP_592_703MM
  6
Continuous
 62
     7
100
AcDbLine
 10
156.5899044371
 20
108.1590809327
 30
0.0
 11
156.5944736521
 21
108.3089416835
 31
0.0
  0
ARC
  5
31A
330
261
100
AcDbEntity
  8
AP_592_703MM
  6
Continuous
 62
     7
100
AcDbCircle
 10
156.3399044468
 20
108.1590112918
 30
0.0
 40
0.2500000000000003
100
AcDbArc
 50
230.0
 51
0.0159605197
  0
LINE
  5
31B
330
261
100
AcDbEntity
  8
AP_592_703MM
  6
Continuous
 62
     7
100
AcDbLine
 10
155.2659713722
 20
108.7337963162
 30
0.0
 11
156.1792075444
 21
107.967500181
 31
0.0
  0
ARC
  5
31C
330
261
100
AcDbEntity
  8
AP_592_703MM
  6
Continuous
 62
     7
100
AcDbCircle
 10
155.5873651771
 20
109.1168185378
 30
0.0
 40
0.5
100
AcDbArc
 50
180.0
 51
230.0
  0
LINE
  5
31D
330
261
100
AcDbEntity
  8
AP_592_703MM
  6
Continuous
 62
     7
100
AcDbLine
 10
155.0873651771
 20
110.2024296266
 30
0.0
 11
155.0873651771
 21
109.1168185378
 31
0.0
  0
ARC
  5
31E
330
261
100
AcDbEntity
  8
AP_592_703MM
  6
Continuous
 62
     7
100
AcDbCircle
 10
155.5873651771
 20
110.2024296266
 30
0.0
 40
0.4999999999999998
100
AcDbArc
 50
130.0
 51
180.0
  0
LINE
  5
31F
330
261
100
AcDbEntity
  8
AP_592_703MM
  6
Continuous
 62
     7
100
AcDbLine
 10
156.1792075444
 20
111.3517479834
 30
0.0
 11
155.2659713722
 21
110.5854518482
 31
0.0
  0
ARC
  5
320
330
261
100
AcDbEntity
  8
AP_592_703MM
  6
Continuous
 62
     7
100
AcDbCircle
 10
156.3399044468
 20
111.1602368726
 30
0.0
 40
0.2500000000000002
100
AcDbArc
 50
0.0
 51
130.0
  0
LINE
  5
321
330
261
100
AcDbEntity
  8
AP_592_703MM
  6
Continuous
 62
     7
100
AcDbLine
 10
156.5899044468
 20
111.0103064809
 30
0.0
 11
156.5899044468
 21
111.1602368726
 31
0.0
  0
LINE
  5
322
330
261
100
AcDbEntity
  8
AP_592_703MM
  6
Continuous
 62
     7
100
AcDbLine
 10
157.5897759325
 20
111.0103064809
 30
0.0
 11
156.5899044468
 21
111.0103064809
 31
0.0
  0
LINE
  5
323
330
261
100
AcDbEntity
  8
AP_592_703MM
  6
Continuous
 62
     7
100
AcDbLine
 10
157.5897759325
 20
112.674894339
 30
0.0
 11
157.5897759325
 21
111.0103064809
 31
0.0
  0
ENDBLK
  5
325
330
261
100
AcDbEntity
  8
0
100
AcDbBlockEnd
  0
BLOCK
  5
40A
330
326
100
AcDbEntity
  8
0
100
AcDbBlockBegin
  2
SE3
 70
     0
 10
0.0
 20
0.0
 30
0.0
  3
SE3
  1
SE3
  0
ARC
  5
328
330
326
100
AcDbEntity
  8
AP_563_708MM
  6
Continuous
 62
     7
100
AcDbCircle
 10
149.2921122787
 20
201.1455037425
 30
0.0
 40
0.5000000000000004
100
AcDbArc
 50
90.0
 51
180.0
  0
LINE
  5
329
330
326
100
AcDbEntity
  8
AP_563_708MM
  6
Continuous
 62
     7
100
AcDbLine
 10
149.3921122787
 20
201.6455037425
 30
0.0
 11
149.2921122787
 21
201.6455037425
 31
0.0
  0
ARC
  5
32A
330
326
100
AcDbEntity
  8
AP_563_708MM
  6
Continuous
 62
     7
100
AcDbCircle
 10
149.3921122787
 20
201.4455037425
 30
0.0
 40
0.1999999999999999
100
AcDbArc
 50
0.0
 51
90.0
  0
LINE
  5
32B
330
326
100
AcDbEntity
  8
AP_563_708MM
  6
Continuous
 62
     7
100
AcDbLine
 10
149.5921122787
 20
200.5259933346
 30
0.0
 11
149.5921122787
 21
201.4455037425
 31
0.0
  0
LINE
  5
32C
330
326
100
AcDbEntity
  8
AP_563_708MM
  6
Continuous
 62
     7
100
AcDbLine
 10
149.3506909225
 20
200.2845719784
 30
0.0
 11
149.5921122787
 21
200.5259933346
 31
0.0
  0
ARC
  5
32D
330
326
100
AcDbEntity
  8
AP_563_708MM
  6
Continuous
 62
     7
100
AcDbCircle
 10
149.4921122787
 20
200.1431506222
 30
0.0
 40
0.2000000000000001
100
AcDbArc
 50
135.0
 51
225.0
  0
LINE
  5
32E
330
326
100
AcDbEntity
  8
AP_563_708MM
  6
Continuous
 62
     7
100
AcDbLine
 10
149.5921122787
 20
199.7603079097
 30
0.0
 11
149.3506909225
 21
200.0017292659
 31
0.0
  0
LINE
  5
32F
330
326
100
AcDbEntity
  8
AP_563_708MM
  6
Continuous
 62
     7
100
AcDbLine
 10
149.5921122787
 20
199.4455036159
 30
0.0
 11
149.5921122787
 21
199.7603079097
 31
0.0
  0
ARC
  5
330
330
326
100
AcDbEntity
  8
AP_563_708MM
  6
Continuous
 62
     7
100
AcDbCircle
 10
150.7421122787
 20
199.4455036159
 30
0.0
 40
1.150000000000184
100
AcDbArc
 50
180.0
 51
0.0
  0
LINE
  5
331
330
326
100
AcDbEntity
  8
AP_563_708MM
  6
Continuous
 62
     7
100
AcDbLine
 10
147.2921122787
 20
193.7430532689
 30
0.0
 11
154.1921122787
 21
193.7430532689
 31
0.0
  0
ARC
  5
332
330
326
100
AcDbEntity
  8
AP_563_708MM
  6
Continuous
 62
     7
100
AcDbCircle
 10
147.2921122787
 20
194.2430532689
 30
0.0
 40
0.5000000000000004
100
AcDbArc
 50
181.2990872952
 51
270.0
  0
LINE
  5
333
330
326
100
AcDbEntity
  8
AP_563_708MM
  6
Continuous
 62
     7
100
AcDbLine
 10
147.1911135015
 20
195.3920545924
 30
0.0
 11
146.7922407934
 21
194.9931818844
 31
0.0
  0
ARC
  5
334
330
326
100
AcDbEntity
  8
AP_563_708MM
  6
Continuous
 62
     7
100
AcDbCircle
 10
147.5921122787
 20
195.2930533697
 30
0.0
 40
0.200000000000001
100
AcDbArc
 50
9.0952669411
 51
29.6701534813
  0
LINE
  5
335
330
326
100
AcDbEntity
  8
AP_563_708MM
  6
Continuous
 62
     7
100
AcDbLine
 10
147.7921122787
 20
194.7430533174
 30
0.0
 11
147.7921122787
 21
195.2421242007
 31
0.0
  0
LINE
  5
336
330
326
100
AcDbEntity
  8
AP_563_708MM
  6
Continuous
 62
     7
100
AcDbLine
 10
150.1421122787
 20
194.7430535499
 30
0.0
 11
147.7921122787
 21
194.7430533174
 31
0.0
  0
LINE
  5
337
330
326
100
AcDbEntity
  8
AP_563_708MM
  6
Continuous
 62
     7
100
AcDbLine
 10
150.1421122787
 20
197.381261732
 30
0.0
 11
150.1421122787
 21
194.7430535499
 31
0.0
  0
ARC
  5
338
330
326
100
AcDbEntity
  8
AP_563_708MM
  6
Continuous
 62
     7
100
AcDbCircle
 10
150.7369982683
 20
199.4473233621
 30
0.0
 40
2.149999999999999
100
AcDbArc
 50
199.1184497513
 51
253.9371784822
  0
LINE
  5
339
330
326
100
AcDbEntity
  8
AP_563_708MM
  6
Continuous
 62
     7
100
AcDbLine
 10
147.7921122787
 20
198.7431506398
 30
0.0
 11
148.7055847517
 21
198.7431507095
 31
0.0
  0
LINE
  5
33A
330
326
100
AcDbEntity
  8
AP_563_708MM
  6
Continuous
 62
     7
100
AcDbLine
 10
147.7921122787
 20
198.2433497815
 30
0.0
 11
147.7921122787
 21
198.7431506398
 31
0.0
  0
ARC
  5
33B
330
326
100
AcDbEntity
  8
AP_563_708MM
  6
Continuous
 62
     7
100
AcDbCircle
 10
147.5921122787
 20
198.1931506737
 30
0.0
 40
0.2000000000000005
100
AcDbArc
 50
330.0888508288
 51
0.0
  0
LINE
  5
33C
330
326
100
AcDbEntity
  8
AP_563_708MM
  6
Continuous
 62
     7
100
AcDbLine
 10
146.7922407929
 20
198.4930221596
 30
0.0
 11
147.1918435626
 21
198.0934193898
 31
0.0
  0
LINE
  5
33D
330
326
100
AcDbEntity
  8
AP_563_708MM
  6
Continuous
 62
     7
100
AcDbLine
 10
147.7921122787
 20
199.7431506222
 30
0.0
 11
147.7921122787
 21
202.4455036159
 31
0.0
  0
LINE
  5
33E
330
326
100
AcDbEntity
  8
AP_563_708MM
  6
Continuous
 62
     7
100
AcDbLine
 10
148.7921122787
 20
199.7431506222
 30
0.0
 11
147.7921122787
 21
199.7431506222
 31
0.0
  0
LINE
  5
33F
330
326
100
AcDbEntity
  8
AP_563_708MM
  6
Continuous
 62
     7
100
AcDbLine
 10
148.7921122787
 20
201.1455037425
 30
0.0
 11
148.7921122787
 21
199.7431506222
 31
0.0
  0
LINE
  5
340
330
326
100
AcDbEntity
  8
AP_563_708MM
  6
Continuous
 62
     7
100
AcDbLine
 10
153.6921122787
 20
199.7431506222
 30
0.0
 11
152.6921122787
 21
199.7431506222
 31
0.0
  0
LINE
  5
341
330
326
100
AcDbEntity
  8
AP_563_708MM
  6
Continuous
 62
     7
100
AcDbLine
 10
152.6921122787
 20
199.7431506222
 30
0.0
 11
152.6921122787
 21
201.1455037425
 31
0.0
  0
ARC
  5
342
330
326
100
AcDbEntity
  8
AP_563_708MM
  6
Continuous
 62
     7
100
AcDbCircle
 10
152.1921122787
 20
201.1455037425
 30
0.0
 40
0.5
100
AcDbArc
 50
0.0
 51
90.0
  0
LINE
  5
343
330
326
100
AcDbEntity
  8
AP_563_708MM
  6
Continuous
 62
     7
100
AcDbLine
 10
152.1921122787
 20
201.6455037425
 30
0.0
 11
152.0921122787
 21
201.6455037425
 31
0.0
  0
ARC
  5
344
330
326
100
AcDbEntity
  8
AP_563_708MM
  6
Continuous
 62
     7
100
AcDbCircle
 10
152.0921122787
 20
201.4455037425
 30
0.0
 40
0.2000000000000001
100
AcDbArc
 50
90.0
 51
180.0
  0
LINE
  5
345
330
326
100
AcDbEntity
  8
AP_563_708MM
  6
Continuous
 62
     7
100
AcDbLine
 10
151.8921122787
 20
201.4455037425
 30
0.0
 11
151.8921122787
 21
200.5259933346
 31
0.0
  0
LINE
  5
346
330
326
100
AcDbEntity
  8
AP_563_708MM
  6
Continuous
 62
     7
100
AcDbLine
 10
151.8921122787
 20
200.5259933346
 30
0.0
 11
152.133533635
 21
200.2845719784
 31
0.0
  0
ARC
  5
347
330
326
100
AcDbEntity
  8
AP_563_708MM
  6
Continuous
 62
     7
100
AcDbCircle
 10
151.9921122787
 20
200.1431506222
 30
0.0
 40
0.2000000000000003
100
AcDbArc
 50
315.0
 51
45.0
  0
LINE
  5
348
330
326
100
AcDbEntity
  8
AP_563_708MM
  6
Continuous
 62
     7
100
AcDbLine
 10
152.133533635
 20
200.0017292659
 30
0.0
 11
151.8921122787
 21
199.7603079097
 31
0.0
  0
LINE
  5
349
330
326
100
AcDbEntity
  8
AP_563_708MM
  6
Continuous
 62
     7
100
AcDbLine
 10
151.8921122787
 20
199.7603079097
 30
0.0
 11
151.8921122787
 21
199.4455036159
 31
0.0
  0
ARC
  5
34A
330
326
100
AcDbEntity
  8
AP_563_708MM
  6
Continuous
 62
     7
100
AcDbCircle
 10
154.1921122787
 20
194.2430532689
 30
0.0
 40
0.5000000000000004
100
AcDbArc
 50
270.0
 51
358.7008998379
  0
LINE
  5
34B
330
326
100
AcDbEntity
  8
AP_563_708MM
  6
Continuous
 62
     7
100
AcDbLine
 10
154.6919837615
 20
194.9931818869
 30
0.0
 11
154.293111056
 21
195.3920545924
 31
0.0
  0
ARC
  5
34C
330
326
100
AcDbEntity
  8
AP_563_708MM
  6
Continuous
 62
     7
100
AcDbCircle
 10
153.8921122787
 20
195.2930533697
 30
0.0
 40
0.2000000000000005
100
AcDbArc
 50
150.3298465187
 51
170.9047335543
  0
LINE
  5
34D
330
326
100
AcDbEntity
  8
AP_563_708MM
  6
Continuous
 62
     7
100
AcDbLine
 10
153.6921122787
 20
195.2421242007
 30
0.0
 11
153.6921122787
 21
194.7430533174
 31
0.0
  0
LINE
  5
34E
330
326
100
AcDbEntity
  8
AP_563_708MM
  6
Continuous
 62
     7
100
AcDbLine
 10
153.6921122787
 20
194.7430533174
 30
0.0
 11
151.3421122787
 21
194.7430535499
 31
0.0
  0
LINE
  5
34F
330
326
100
AcDbEntity
  8
AP_563_708MM
  6
Continuous
 62
     7
100
AcDbLine
 10
151.3421122787
 20
194.7430535499
 30
0.0
 11
151.3421122787
 21
197.381261732
 31
0.0
  0
ARC
  5
350
330
326
100
AcDbEntity
  8
AP_563_708MM
  6
Continuous
 62
     7
100
AcDbCircle
 10
150.7472262892
 20
199.4473233621
 30
0.0
 40
2.150000000000001
100
AcDbArc
 50
286.0628215178
 51
340.8815502487
  0
LINE
  5
351
330
326
100
AcDbEntity
  8
AP_563_708MM
  6
Continuous
 62
     7
100
AcDbLine
 10
152.7786398058
 20
198.7431507095
 30
0.0
 11
153.6921122787
 21
198.7431506398
 31
0.0
  0
LINE
  5
352
330
326
100
AcDbEntity
  8
AP_563_708MM
  6
Continuous
 62
     7
100
AcDbLine
 10
153.6921122787
 20
198.7431506398
 30
0.0
 11
153.6921122787
 21
198.2433497815
 31
0.0
  0
ARC
  5
353
330
326
100
AcDbEntity
  8
AP_563_708MM
  6
Continuous
 62
     7
100
AcDbCircle
 10
153.8921122787
 20
198.1931506737
 30
0.0
 40
0.2000000000000001
100
AcDbArc
 50
180.0
 51
209.9111491712
  0
LINE
  5
354
330
326
100
AcDbEntity
  8
AP_563_708MM
  6
Continuous
 62
     7
100
AcDbLine
 10
154.2923809948
 20
198.0934193898
 30
0.0
 11
154.6919837643
 21
198.4930221593
 31
0.0
  0
LINE
  5
355
330
326
100
AcDbEntity
  8
AP_563_708MM
  6
Continuous
 62
     7
100
AcDbLine
 10
154.6921122787
 20
199.7610491911
 30
0.0
 11
154.6921122787
 21
201.6182751607
 31
0.0
  0
LINE
  5
356
330
326
100
AcDbEntity
  8
AP_563_708MM
  6
Continuous
 62
     7
100
AcDbLine
 10
154.6921122787
 20
201.8671988215
 30
0.0
 11
154.6921122787
 21
202.4455036159
 31
0.0
  0
LINE
  5
357
330
326
100
AcDbEntity
  8
AP_563_708MM
  6
Continuous
 62
     7
100
AcDbLine
 10
153.6921122787
 20
202.4455036159
 30
0.0
 11
153.6921122787
 21
199.7431506222
 31
0.0
  0
LINE
  5
358
330
326
100
AcDbEntity
  8
AP_563_708MM
  6
Continuous
 62
     7
100
AcDbLine
 10
153.6921122787
 20
202.4455036159
 30
0.0
 11
153.6921122787
 21
202.9455036159
 31
0.0
  0
LINE
  5
359
330
326
100
AcDbEntity
  8
AP_563_708MM
  6
Continuous
 62
     7
100
AcDbLine
 10
146.7921122787
 20
202.4455036159
 30
0.0
 11
146.7921122787
 21
201.8671988214
 31
0.0
  0
LINE
  5
35A
330
326
100
AcDbEntity
  8
AP_563_708MM
  6
Continuous
 62
     7
100
AcDbLine
 10
146.7921122787
 20
201.6182751608
 30
0.0
 11
146.7921122787
 21
199.7610491858
 31
0.0
  0
LINE
  5
35B
330
326
100
AcDbEntity
  8
AP_563_708MM
  6
Continuous
 62
     7
100
AcDbLine
 10
147.7921122787
 20
202.4455036159
 30
0.0
 11
146.7921122787
 21
202.4455036159
 31
0.0
  0
LINE
  5
35C
330
326
100
AcDbEntity
  8
AP_563_708MM
  6
Continuous
 62
     7
100
AcDbLine
 10
154.6921122787
 20
202.4455036159
 30
0.0
 11
153.6921122787
 21
202.4455036159
 31
0.0
  0
ARC
  5
35D
330
326
100
AcDbEntity
  8
AP_563_708MM
  6
Continuous
 62
     7
100
AcDbCircle
 10
147.2921122787
 20
212.9455036159
 30
0.0
 40
0.5000000000000004
100
AcDbArc
 50
72.5423968763
 51
90.0
  0
LINE
  5
35E
330
326
100
AcDbEntity
  8
AP_563_708MM
  6
Continuous
 62
     7
100
AcDbLine
 10
147.7921122787
 20
202.9455036159
 30
0.0
 11
147.7921122787
 21
202.4455036159
 31
0.0
  0
LINE
  5
35F
330
326
100
AcDbEntity
  8
AP_563_708MM
  6
Continuous
 62
     7
100
AcDbLine
 10
146.7921122787
 20
202.4455036159
 30
0.0
 11
146.7921122787
 21
213.4455036159
 31
0.0
  0
LINE
  5
360
330
326
100
AcDbEntity
  8
AP_563_708MM
  6
Continuous
 62
     7
100
AcDbLine
 10
146.7921122787
 20
213.4455036159
 30
0.0
 11
147.2921122787
 21
213.4455036159
 31
0.0
  0
LINE
  5
361
330
326
100
AcDbEntity
  8
AP_563_708MM
  6
Continuous
 62
     7
100
AcDbLine
 10
154.1921122787
 20
213.4455036159
 30
0.0
 11
154.6921122787
 21
213.4455036159
 31
0.0
  0
LINE
  5
362
330
326
100
AcDbEntity
  8
AP_563_708MM
  6
Continuous
 62
     7
100
AcDbLine
 10
154.6921122787
 20
213.4455036159
 30
0.0
 11
154.6921122787
 21
202.4455036159
 31
0.0
  0
ARC
  5
363
330
326
100
AcDbEntity
  8
AP_563_708MM
  6
Continuous
 62
     7
100
AcDbCircle
 10
154.1921122787
 20
212.9455036159
 30
0.0
 40
0.5000000000000004
100
AcDbArc
 50
90.0
 51
107.4576031237
  0
ARC
  5
364
330
326
100
AcDbEntity
  8
AF_079_EINBAU
  6
Continuous
 62
     7
100
AcDbCircle
 10
150.7421122787
 20
200.4455036159
 30
0.0
 40
1.0
100
AcDbArc
 50
180.0
 51
0.0
  0
LINE
  5
365
330
326
100
AcDbEntity
  8
AF_079_EINBAU
  6
Continuous
 62
     7
100
AcDbLine
 10
151.7421122787
 20
200.4455036159
 30
0.0
 11
151.7421122787
 21
200.4615718321
 31
0.0
  0
LINE
  5
366
330
326
100
AcDbEntity
  8
AF_079_EINBAU
  6
Continuous
 62
     7
100
AcDbLine
 10
149.7421122787
 20
200.4615718321
 30
0.0
 11
149.7421122787
 21
200.4455036159
 31
0.0
  0
LINE
  5
367
330
326
100
AcDbEntity
  8
AF_079_EINBAU
  6
Continuous
 62
     7
100
AcDbLine
 10
149.7421122787
 20
202.9455036159
 30
0.0
 11
149.7421122787
 21
200.4615718321
 31
0.0
  0
LINE
  5
368
330
326
100
AcDbEntity
  8
AF_079_EINBAU
  6
Continuous
 62
     7
100
AcDbLine
 10
151.7421122787
 20
200.4615718321
 30
0.0
 11
151.7421122787
 21
202.9455036159
 31
0.0
  0
ARC
  5
369
330
326
100
AcDbEntity
  8
AF_080
  6
Continuous
 62
     7
100
AcDbCircle
 10
153.7440070156
 20
202.6427267555
 30
0.0
 40
0.5999999999999999
100
AcDbArc
 50
180.0
 51
265.0382182102
  0
LINE
  5
36A
330
326
100
AcDbEntity
  8
AF_080
  6
Continuous
 62
     7
100
AcDbLine
 10
153.1440070156
 20
202.9455036159
 30
0.0
 11
153.1440070156
 21
202.6427267555
 31
0.0
  0
ARC
  5
36B
330
326
100
AcDbEntity
  8
AF_080
  6
Continuous
 62
     7
100
AcDbCircle
 10
147.7402175419
 20
202.6427267555
 30
0.0
 40
0.5999999999999999
100
AcDbArc
 50
274.9617817898
 51
0.0
  0
LINE
  5
36C
330
326
100
AcDbEntity
  8
AF_080
  6
Continuous
 62
     7
100
AcDbLine
 10
148.3402175419
 20
202.6427267555
 30
0.0
 11
148.3402175419
 21
202.9455036159
 31
0.0
  0
LINE
  5
36D
330
326
100
AcDbEntity
  8
AW_126
  6
Continuous
 62
     7
100
AcDbLine
 10
145.6778650537
 20
216.9455036159
 30
0.0
 11
145.6778650537
 21
218.1455036159
 31
0.0
  0
LINE
  5
36E
330
326
100
AcDbEntity
  8
AW_126
  6
Continuous
 62
     7
100
AcDbLine
 10
155.8278650537
 20
218.1455036159
 30
0.0
 11
155.8278650537
 21
216.9622876593
 31
0.0
  0
CIRCLE
  5
36F
330
326
100
AcDbEntity
  8
AW_126
  6
Continuous
 62
     7
100
AcDbCircle
 10
150.7421122787
 20
228.0432813937
 30
0.0
 40
3.25
  0
ARC
  5
370
330
326
100
AcDbEntity
  8
AW_126
  6
Continuous
 62
     7
100
AcDbCircle
 10
150.741560068
 20
229.1432814035
 30
0.0
 40
6.500000000000003
100
AcDbArc
 50
0.0
 51
180.0
  0
LINE
  5
371
330
326
100
AcDbEntity
  8
AW_126
  6
Continuous
 62
     7
100
AcDbLine
 10
157.241560068
 20
229.1432814035
 30
0.0
 11
157.241560068
 21
218.9622876593
 31
0.0
  0
LINE
  5
372
330
326
100
AcDbEntity
  8
AW_126
  6
Continuous
 62
     7
100
AcDbLine
 10
155.8278650537
 20
218.1455036159
 30
0.0
 11
155.8278650537
 21
218.2622876593
 31
0.0
  0
LINE
  5
373
330
326
100
AcDbEntity
  8
AW_126
  6
Continuous
 62
     7
100
AcDbLine
 10
144.241560068
 20
218.9622876593
 30
0.0
 11
144.241560068
 21
229.1432814035
 31
0.0
  0
LINE
  5
374
330
326
100
AcDbEntity
  8
AW_126
  6
Continuous
 62
     7
100
AcDbLine
 10
144.741560068
 20
218.4622876593
 30
0.0
 11
145.4778650537
 21
218.4622876593
 31
0.0
  0
ARC
  5
375
330
326
100
AcDbEntity
  8
AW_126
  6
Continuous
 62
     7
100
AcDbCircle
 10
144.741560068
 20
218.9622876593
 30
0.0
 40
0.5000000000000004
100
AcDbArc
 50
180.0
 51
270.0
  0
ARC
  5
376
330
326
100
AcDbEntity
  8
AW_126
  6
Continuous
 62
     7
100
AcDbCircle
 10
156.741560068
 20
218.9622876593
 30
0.0
 40
0.4999999999999952
100
AcDbArc
 50
270.0
 51
0.0
  0
LINE
  5
377
330
326
100
AcDbEntity
  8
AW_126
  6
Continuous
 62
     7
100
AcDbLine
 10
155.8063595037
 20
216.9455036159
 30
0.0
 11
145.6778650537
 21
216.9455036159
 31
0.0
  0
LINE
  5
378
330
326
100
AcDbEntity
  8
AW_126
  6
Continuous
 62
     7
100
AcDbLine
 10
155.8063595037
 20
216.9455036159
 30
0.0
 11
155.8063595037
 21
216.9622876593
 31
0.0
  0
LINE
  5
379
330
326
100
AcDbEntity
  8
AW_126
  6
Continuous
 62
     7
100
AcDbLine
 10
155.8063595037
 20
216.9622876593
 30
0.0
 11
155.8278650537
 21
216.9622876593
 31
0.0
  0
LINE
  5
37A
330
326
100
AcDbEntity
  8
AW_126
  6
Continuous
 62
     7
100
AcDbLine
 10
145.6778650537
 20
218.2622876593
 30
0.0
 11
145.6778650537
 21
218.1455036159
 31
0.0
  0
ARC
  5
37B
330
326
100
AcDbEntity
  8
AW_126
  6
Continuous
 62
     7
100
AcDbCircle
 10
145.4778650537
 20
218.2622876593
 30
0.0
 40
0.2000000000000057
100
AcDbArc
 50
0.0
 51
90.0
  0
LINE
  5
37C
330
326
100
AcDbEntity
  8
AW_126
  6
Continuous
 62
     7
100
AcDbLine
 10
156.0278650537
 20
218.4622876593
 30
0.0
 11
156.741560068
 21
218.4622876593
 31
0.0
  0
ARC
  5
37D
330
326
100
AcDbEntity
  8
AW_126
  6
Continuous
 62
     7
100
AcDbCircle
 10
156.0278650537
 20
218.2622876593
 30
0.0
 40
0.1999999999999988
100
AcDbArc
 50
90.0
 51
180.0
  0
LINE
  5
37E
330
326
100
AcDbEntity
  8
AP_562_M
  6
HIDDEN2
 62
     7
100
AcDbLine
 10
156.1421122787
 20
218.9455036159
 30
0.0
 11
145.3421122787
 21
218.9455036159
 31
0.0
  0
LINE
  5
37F
330
326
100
AcDbEntity
  8
AP_562_M
  6
Continuous
 62
     7
100
AcDbLine
 10
145.9921122787
 20
215.6455036159
 30
0.0
 11
145.9921122787
 21
216.4455036159
 31
0.0
  0
ARC
  5
380
330
326
100
AcDbEntity
  8
AP_562_M
  6
Continuous
 62
     7
100
AcDbCircle
 10
145.9921122787
 20
215.2955036159
 30
0.0
 40
0.3499999999999996
100
AcDbArc
 50
90.0
 51
270.0
  0
LINE
  5
381
330
326
100
AcDbEntity
  8
AP_562_M
  6
Continuous
 62
     7
100
AcDbLine
 10
145.5421122787
 20
213.9455036159
 30
0.0
 11
147.0421122787
 21
213.9455036159
 31
0.0
  0
ARC
  5
382
330
326
100
AcDbEntity
  8
AP_562_M
  6
Continuous
 62
     7
100
AcDbCircle
 10
145.5421122787
 20
213.7455036159
 30
0.0
 40
0.1999999999999988
100
AcDbArc
 50
165.5512048964
 51
180.0
  0
ARC
  5
383
330
326
100
AcDbEntity
  8
AP_562_M
  6
HIDDEN2
 62
     7
100
AcDbCircle
 10
145.5421122787
 20
213.7455036159
 30
0.0
 40
0.1999999999999988
100
AcDbArc
 50
93.4623999835
 51
165.5512048964
  0
ARC
  5
384
330
326
100
AcDbEntity
  8
AP_562_M
  6
Continuous
 62
     7
100
AcDbCircle
 10
145.5421122787
 20
213.7455036159
 30
0.0
 40
0.1999999999999988
100
AcDbArc
 50
90.0
 51
93.4623999835
  0
LINE
  5
385
330
326
100
AcDbEntity
  8
AP_562_M
  6
Continuous
 62
     7
100
AcDbLine
 10
145.3421122787
 20
189.1455036159
 30
0.0
 11
145.3421122787
 21
213.7455036159
 31
0.0
  0
ARC
  5
386
330
326
100
AcDbEntity
  8
AP_562_M
  6
Continuous
 62
     7
100
AcDbCircle
 10
145.1421122787
 20
189.1455036159
 30
0.0
 40
0.1999999999999988
100
AcDbArc
 50
270.0
 51
0.0
  0
LINE
  5
387
330
326
100
AcDbEntity
  8
AP_562_M
  6
Continuous
 62
     7
100
AcDbLine
 10
144.5421122787
 20
188.9455036159
 30
0.0
 11
145.1421122787
 21
188.9455036159
 31
0.0
  0
ARC
  5
388
330
326
100
AcDbEntity
  8
AP_562_M
  6
Continuous
 62
     7
100
AcDbCircle
 10
144.5421122787
 20
189.1455036159
 30
0.0
 40
0.1999999999999997
100
AcDbArc
 50
180.0
 51
270.0
  0
LINE
  5
389
330
326
100
AcDbEntity
  8
AP_562_M
  6
Continuous
 62
     7
100
AcDbLine
 10
144.3421122787
 20
217.9455036159
 30
0.0
 11
144.3421122787
 21
189.1455036159
 31
0.0
  0
ARC
  5
38A
330
326
100
AcDbEntity
  8
AP_562_M
  6
HIDDEN2
 62
     7
100
AcDbCircle
 10
145.3421122787
 20
217.9455036159
 30
0.0
 40
1.000000000000001
100
AcDbArc
 50
90.0
 51
145.3368967539
  0
ARC
  5
38B
330
326
100
AcDbEntity
  8
AP_562_M
  6
Continuous
 62
     7
100
AcDbCircle
 10
145.3421122787
 20
217.9455036159
 30
0.0
 40
1.000000000000001
100
AcDbArc
 50
145.3368967539
 51
180.0
  0
LINE
  5
38C
330
326
100
AcDbEntity
  8
AP_562_M
  6
Continuous
 62
     7
100
AcDbLine
 10
145.5421122787
 20
217.9455036159
 30
0.0
 11
145.6778650537
 21
217.9455036159
 31
0.0
  0
LINE
  5
38D
330
326
100
AcDbEntity
  8
AP_562_M
  6
HIDDEN2
 62
     7
100
AcDbLine
 10
145.6778650537
 20
217.9455036159
 30
0.0
 11
155.8278650537
 21
217.9455036159
 31
0.0
  0
LINE
  5
38E
330
326
100
AcDbEntity
  8
AP_562_M
  6
Continuous
 62
     7
100
AcDbLine
 10
155.8278650537
 20
217.9455036159
 30
0.0
 11
155.9421122787
 21
217.9455036159
 31
0.0
  0
ARC
  5
38F
330
326
100
AcDbEntity
  8
AP_562_M
  6
Continuous
 62
     7
100
AcDbCircle
 10
145.5421122787
 20
217.7455036159
 30
0.0
 40
0.1999999999999997
100
AcDbArc
 50
90.0
 51
180.0
  0
LINE
  5
390
330
326
100
AcDbEntity
  8
AP_562_M
  6
Continuous
 62
     7
100
AcDbLine
 10
147.2421122787
 20
214.1455036159
 30
0.0
 11
147.2421122787
 21
214.7455036159
 31
0.0
  0
ARC
  5
391
330
326
100
AcDbEntity
  8
AP_562_M
  6
Continuous
 62
     7
100
AcDbCircle
 10
147.0421122787
 20
214.1455036159
 30
0.0
 40
0.1999999999999988
100
AcDbArc
 50
270.0
 51
0.0
  0
LINE
  5
392
330
326
100
AcDbEntity
  8
AP_562_M
  6
Continuous
 62
     7
100
AcDbLine
 10
147.0421122787
 20
214.9455036159
 30
0.0
 11
145.9921122787
 21
214.9455036159
 31
0.0
  0
ARC
  5
393
330
326
100
AcDbEntity
  8
AP_562_M
  6
Continuous
 62
     7
100
AcDbCircle
 10
147.0421122787
 20
214.7455036159
 30
0.0
 40
0.2000000000000001
100
AcDbArc
 50
0.0
 51
90.0
  0
LINE
  5
394
330
326
100
AcDbEntity
  8
AP_562_M
  6
Continuous
 62
     7
100
AcDbLine
 10
145.7921122787
 20
216.6455036159
 30
0.0
 11
145.5421122787
 21
216.6455036159
 31
0.0
  0
ARC
  5
395
330
326
100
AcDbEntity
  8
AP_562_M
  6
Continuous
 62
     7
100
AcDbCircle
 10
145.7921122787
 20
216.4455036159
 30
0.0
 40
0.1999999999999997
100
AcDbArc
 50
0.0
 51
90.0
  0
LINE
  5
396
330
326
100
AcDbEntity
  8
AP_562_M
  6
Continuous
 62
     7
100
AcDbLine
 10
145.3421122787
 20
216.8455036159
 30
0.0
 11
145.3421122787
 21
217.7455036159
 31
0.0
  0
ARC
  5
397
330
326
100
AcDbEntity
  8
AP_562_M
  6
Continuous
 62
     7
100
AcDbCircle
 10
145.5421122787
 20
216.8455036159
 30
0.0
 40
0.2000000000000005
100
AcDbArc
 50
180.0
 51
270.0
  0
ARC
  5
398
330
326
100
AcDbEntity
  8
AP_562_M
  6
HIDDEN2
 62
     7
100
AcDbCircle
 10
156.1421122787
 20
217.9455036159
 30
0.0
 40
1.000000000000001
100
AcDbArc
 50
34.6915414994
 51
90.0
  0
ARC
  5
399
330
326
100
AcDbEntity
  8
AP_562_M
  6
Continuous
 62
     7
100
AcDbCircle
 10
156.1421122787
 20
217.9455036159
 30
0.0
 40
1.000000000000001
100
AcDbArc
 50
0.0
 51
34.6915414994
  0
LINE
  5
39A
330
326
100
AcDbEntity
  8
AP_562_M
  6
Continuous
 62
     7
100
AcDbLine
 10
157.1421122787
 20
217.9455036159
 30
0.0
 11
157.1421122787
 21
189.1455036159
 31
0.0
  0
ARC
  5
39B
330
326
100
AcDbEntity
  8
AP_562_M
  6
Continuous
 62
     7
100
AcDbCircle
 10
156.9421122787
 20
189.1455036159
 30
0.0
 40
0.1999999999999997
100
AcDbArc
 50
270.0
 51
0.0
  0
LINE
  5
39C
330
326
100
AcDbEntity
  8
AP_562_M
  6
Continuous
 62
     7
100
AcDbLine
 10
156.9421122787
 20
188.9455036159
 30
0.0
 11
156.3421122787
 21
188.9455036159
 31
0.0
  0
ARC
  5
39D
330
326
100
AcDbEntity
  8
AP_562_M
  6
Continuous
 62
     7
100
AcDbCircle
 10
156.3421122787
 20
189.1455036159
 30
0.0
 40
0.1999999999999988
100
AcDbArc
 50
180.0
 51
270.0
  0
LINE
  5
39E
330
326
100
AcDbEntity
  8
AP_562_M
  6
Continuous
 62
     7
100
AcDbLine
 10
156.1421122787
 20
189.1455036159
 30
0.0
 11
156.1421122787
 21
213.7455036159
 31
0.0
  0
ARC
  5
39F
330
326
100
AcDbEntity
  8
AP_562_M
  6
Continuous
 62
     7
100
AcDbCircle
 10
155.9421122787
 20
213.7455036159
 30
0.0
 40
0.1999999999999988
100
AcDbArc
 50
0.0
 51
14.4487951036
  0
ARC
  5
3A0
330
326
100
AcDbEntity
  8
AP_562_M
  6
HIDDEN2
 62
     7
100
AcDbCircle
 10
155.9421122787
 20
213.7455036159
 30
0.0
 40
0.1999999999999988
100
AcDbArc
 50
14.4487951036
 51
86.5376000165
  0
ARC
  5
3A1
330
326
100
AcDbEntity
  8
AP_562_M
  6
Continuous
 62
     7
100
AcDbCircle
 10
155.9421122787
 20
213.7455036159
 30
0.0
 40
0.1999999999999988
100
AcDbArc
 50
86.5376000165
 51
90.0
  0
LINE
  5
3A2
330
326
100
AcDbEntity
  8
AP_562_M
  6
Continuous
 62
     7
100
AcDbLine
 10
155.9421122787
 20
213.9455036159
 30
0.0
 11
154.4421122787
 21
213.9455036159
 31
0.0
  0
LINE
  5
3A3
330
326
100
AcDbEntity
  8
AP_562_M
  6
Continuous
 62
     7
100
AcDbLine
 10
154.2421122787
 20
214.1455036159
 30
0.0
 11
154.2421122787
 21
214.7455036159
 31
0.0
  0
LINE
  5
3A4
330
326
100
AcDbEntity
  8
AP_562_M
  6
Continuous
 62
     7
100
AcDbLine
 10
154.4421122787
 20
214.9455036159
 30
0.0
 11
155.4921122787
 21
214.9455036159
 31
0.0
  0
ARC
  5
3A5
330
326
100
AcDbEntity
  8
AP_562_M
  6
Continuous
 62
     7
100
AcDbCircle
 10
155.4921122787
 20
215.2955036159
 30
0.0
 40
0.3499999999999996
100
AcDbArc
 50
270.0
 51
90.0
  0
LINE
  5
3A6
330
326
100
AcDbEntity
  8
AP_562_M
  6
Continuous
 62
     7
100
AcDbLine
 10
155.4921122787
 20
215.6455036159
 30
0.0
 11
155.4921122787
 21
216.4455036159
 31
0.0
  0
LINE
  5
3A7
330
326
100
AcDbEntity
  8
AP_562_M
  6
Continuous
 62
     7
100
AcDbLine
 10
155.6921122787
 20
216.6455036159
 30
0.0
 11
155.9421122787
 21
216.6455036159
 31
0.0
  0
LINE
  5
3A8
330
326
100
AcDbEntity
  8
AP_562_M
  6
Continuous
 62
     7
100
AcDbLine
 10
156.1421122787
 20
216.8455036159
 30
0.0
 11
156.1421122787
 21
217.7455036159
 31
0.0
  0
ARC
  5
3A9
330
326
100
AcDbEntity
  8
AP_562_M
  6
Continuous
 62
     7
100
AcDbCircle
 10
155.9421122787
 20
217.7455036159
 30
0.0
 40
0.1999999999999997
100
AcDbArc
 50
0.0
 51
90.0
  0
ARC
  5
3AA
330
326
100
AcDbEntity
  8
AP_562_M
  6
Continuous
 62
     7
100
AcDbCircle
 10
154.4421122787
 20
214.1455036159
 30
0.0
 40
0.1999999999999988
100
AcDbArc
 50
180.0
 51
270.0
  0
ARC
  5
3AB
330
326
100
AcDbEntity
  8
AP_562_M
  6
Continuous
 62
     7
100
AcDbCircle
 10
154.4421122787
 20
214.7455036159
 30
0.0
 40
0.2000000000000001
100
AcDbArc
 50
90.0
 51
180.0
  0
ARC
  5
3AC
330
326
100
AcDbEntity
  8
AP_562_M
  6
Continuous
 62
     7
100
AcDbCircle
 10
155.6921122787
 20
216.4455036159
 30
0.0
 40
0.1999999999999997
100
AcDbArc
 50
90.0
 51
180.0
  0
ARC
  5
3AD
330
326
100
AcDbEntity
  8
AP_562_M
  6
Continuous
 62
     7
100
AcDbCircle
 10
155.9421122787
 20
216.8455036159
 30
0.0
 40
0.2000000000000005
100
AcDbArc
 50
270.0
 51
0.0
  0
LINE
  5
3AE
330
326
100
AcDbEntity
  8
AJ_359
  6
Continuous
 62
     7
100
AcDbLine
 10
154.0421122787
 20
216.4455036159
 30
0.0
 11
155.2421122787
 21
216.4455036159
 31
0.0
  0
LINE
  5
3AF
330
326
100
AcDbEntity
  8
AJ_359
  6
Continuous
 62
     7
100
AcDbLine
 10
155.2421122787
 20
216.4455036159
 30
0.0
 11
155.2421122787
 21
214.9455036159
 31
0.0
  0
LINE
  5
3B0
330
326
100
AcDbEntity
  8
AJ_359
  6
Continuous
 62
     7
100
AcDbLine
 10
154.4421122787
 20
214.9455036159
 30
0.0
 11
154.0421122787
 21
214.9455036159
 31
0.0
  0
LINE
  5
3B1
330
326
100
AcDbEntity
  8
AJ_359
  6
Continuous
 62
     7
100
AcDbLine
 10
147.4421122787
 20
214.9455036159
 30
0.0
 11
147.0421122787
 21
214.9455036159
 31
0.0
  0
LINE
  5
3B2
330
326
100
AcDbEntity
  8
AJ_359
  6
Continuous
 62
     7
100
AcDbLine
 10
146.2421122787
 20
214.9455036159
 30
0.0
 11
146.2421122787
 21
216.4455036159
 31
0.0
  0
LINE
  5
3B3
330
326
100
AcDbEntity
  8
AJ_359
  6
Continuous
 62
     7
100
AcDbLine
 10
147.4421122787
 20
216.4455036159
 30
0.0
 11
146.2421122787
 21
216.4455036159
 31
0.0
  0
LINE
  5
3B4
330
326
100
AcDbEntity
  8
AJ_359
  6
Continuous
 62
     7
100
AcDbLine
 10
147.4421122787
 20
216.4455036159
 30
0.0
 11
154.0421122787
 21
216.4455036159
 31
0.0
  0
LINE
  5
3B5
330
326
100
AcDbEntity
  8
AJ_359
  6
Continuous
 62
     7
100
AcDbLine
 10
154.0421122787
 20
202.9604680302
 30
0.0
 11
154.0421122787
 21
202.9455036159
 31
0.0
  0
LINE
  5
3B6
330
326
100
AcDbEntity
  8
AJ_359
  6
Continuous
 62
     7
100
AcDbLine
 10
154.0421122787
 20
216.4305392017
 30
0.0
 11
154.0421122787
 21
202.9604680302
 31
0.0
  0
LINE
  5
3B7
330
326
100
AcDbEntity
  8
AJ_359
  6
Continuous
 62
     7
100
AcDbLine
 10
154.0421122787
 20
216.4455036159
 30
0.0
 11
154.0421122787
 21
216.4305392017
 31
0.0
  0
LINE
  5
3B8
330
326
100
AcDbEntity
  8
AJ_359
  6
Continuous
 62
     7
100
AcDbLine
 10
147.4421122787
 20
202.9455036159
 30
0.0
 11
147.4421122787
 21
202.9604680302
 31
0.0
  0
LINE
  5
3B9
330
326
100
AcDbEntity
  8
AJ_359
  6
Continuous
 62
     7
100
AcDbLine
 10
147.4421122787
 20
202.9604680302
 30
0.0
 11
147.4421122787
 21
216.4305392017
 31
0.0
  0
LINE
  5
3BA
330
326
100
AcDbEntity
  8
AJ_359
  6
Continuous
 62
     7
100
AcDbLine
 10
147.4421122787
 20
216.4305392017
 30
0.0
 11
147.4421122787
 21
216.4455036159
 31
0.0
  0
LINE
  5
3BB
330
326
100
AcDbEntity
  8
AJ_359
  6
Continuous
 62
     7
100
AcDbLine
 10
154.0421122787
 20
202.9455036159
 30
0.0
 11
147.4421122787
 21
202.9455036159
 31
0.0
  0
SPLINE
  5
3BC
330
326
100
AcDbEntity
  8
AJ_359
  6
Continuous
 62
     7
100
AcDbSpline
210
0.0
220
0.0
230
1.0
 70
     8
 71
     3
 72
    20
 73
    16
 74
     0
 42
0.000000001
 43
0.0000000001
 40
0.0
 40
0.0
 40
0.0
 40
0.0
 40
0.1920626564234774
 40
0.1920626564234774
 40
0.1920626564234774
 40
0.4259408065429229
 40
0.4259408065429229
 40
0.4259408065429229
 40
0.7449077213504677
 40
0.7449077213504677
 40
0.7449077213504677
 40
0.9945387088065732
 40
0.9945387088065732
 40
0.9945387088065732
 40
1.0
 40
1.0
 40
1.0
 40
1.0
 10
147.4421122787154
 20
202.9604680301899
 30
0.0
 10
147.4421122787154
 20
202.9730238688543
 30
0.0
 10
147.4504682819702
 20
202.9932615976388
 30
0.0
 10
147.4645702584305
 20
203.0176287314756
 30
0.0
 10
147.4817495858689
 20
203.0473132917992
 30
0.0
 10
147.50777567101
 20
203.0839279633346
 30
0.0
 10
147.5384857741004
 20
203.1231016570131
 30
0.0
 10
147.5802587843646
 20
203.1763871540791
 30
0.0
 10
147.6319261984377
 20
203.2360728878995
 30
0.0
 10
147.6875723567424
 20
203.2966452809741
 30
0.0
 10
147.731390151898
 20
203.3443421713379
 30
0.0
 10
147.7784699436605
 20
203.3934682339687
 30
0.0
 10
147.8269410353815
 20
203.4423104854041
 30
0.0
 10
147.8279973157286
 20
203.4433748540508
 30
0.0
 10
147.8290544029771
 20
203.4444392362146
 30
0.0
 10
147.8301122787154
 20
203.4455036159354
 30
0.0
  0
SPLINE
  5
3BD
330
326
100
AcDbEntity
  8
AJ_359
  6
Continuous
 62
     7
100
AcDbSpline
210
0.0
220
0.0
230
1.0
 70
     8
 71
     3
 72
    20
 73
    16
 74
     0
 42
0.000000001
 43
0.0000000001
 40
0.0
 40
0.0
 40
0.0
 40
0.0
 40
0.0054612911934266
 40
0.0054612911934266
 40
0.0054612911934266
 40
0.2550922786495285
 40
0.2550922786495285
 40
0.2550922786495285
 40
0.5740591934570767
 40
0.5740591934570767
 40
0.5740591934570767
 40
0.8079373435765225
 40
0.8079373435765225
 40
0.8079373435765225
 40
1.0
 40
1.0
 40
1.0
 40
1.0
 10
153.6541122787153
 20
203.4455036159354
 30
0.0
 10
153.6551701544536
 20
203.4444392362146
 30
0.0
 10
153.6562272417021
 20
203.4433748540507
 30
0.0
 10
153.6572835220492
 20
203.4423104854041
 30
0.0
 10
153.7057546137706
 20
203.3934682339692
 30
0.0
 10
153.7528344055327
 20
203.3443421713379
 30
0.0
 10
153.7966522006884
 20
203.2966452809741
 30
0.0
 10
153.8522983589931
 20
203.2360728878995
 30
0.0
 10
153.9039657730661
 20
203.1763871540791
 30
0.0
 10
153.9457387833304
 20
203.1231016570131
 30
0.0
 10
153.9764488864208
 20
203.0839279633346
 30
0.0
 10
154.0024749715618
 20
203.0473132917992
 30
0.0
 10
154.0196542990002
 20
203.0176287314756
 30
0.0
 10
154.0337562754605
 20
202.9932615976388
 30
0.0
 10
154.0421122787154
 20
202.9730238688543
 30
0.0
 10
154.0421122787154
 20
202.9604680301899
 30
0.0
  0
SPLINE
  5
3BE
330
326
100
AcDbEntity
  8
AJ_359
  6
Continuous
 62
     7
100
AcDbSpline
210
0.0
220
0.0
230
1.0
 70
     8
 71
     3
 72
    20
 73
    16
 74
     0
 42
0.000000001
 43
0.0000000001
 40
0.0
 40
0.0
 40
0.0
 40
0.0
 40
0.1920626564234774
 40
0.1920626564234774
 40
0.1920626564234774
 40
0.4259408065429225
 40
0.4259408065429225
 40
0.4259408065429225
 40
0.7449077213504675
 40
0.7449077213504675
 40
0.7449077213504675
 40
0.9945387088065751
 40
0.9945387088065751
 40
0.9945387088065751
 40
1.0
 40
1.0
 40
1.0
 40
1.0
 10
147.4421122787154
 20
216.4305392016808
 30
0.0
 10
147.4421122787154
 20
216.4179833630164
 30
0.0
 10
147.4504682819702
 20
216.3977456342319
 30
0.0
 10
147.4645702584305
 20
216.3733785003951
 30
0.0
 10
147.4817495858689
 20
216.3436939400715
 30
0.0
 10
147.50777567101
 20
216.3070792685361
 30
0.0
 10
147.5384857741004
 20
216.2679055748576
 30
0.0
 10
147.5802587843646
 20
216.2146200777916
 30
0.0
 10
147.6319261984377
 20
216.1549343439712
 30
0.0
 10
147.6875723567424
 20
216.0943619508966
 30
0.0
 10
147.731390151898
 20
216.0466650605328
 30
0.0
 10
147.7784699436606
 20
215.997538997902
 30
0.0
 10
147.8269410353815
 20
215.9486967464666
 30
0.0
 10
147.8279973157286
 20
215.9476323778199
 30
0.0
 10
147.8290544029771
 20
215.9465679956561
 30
0.0
 10
147.8301122787154
 20
215.9455036159353
 30
0.0
  0
SPLINE
  5
3BF
330
326
100
AcDbEntity
  8
AJ_359
  6
Continuous
 62
     7
100
AcDbSpline
210
0.0
220
0.0
230
1.0
 70
     8
 71
     3
 72
    20
 73
    16
 74
     0
 42
0.000000001
 43
0.0000000001
 40
0.0
 40
0.0
 40
0.0
 40
0.0
 40
0.0054612911934254
 40
0.0054612911934254
 40
0.0054612911934254
 40
0.2550922786495261
 40
0.2550922786495261
 40
0.2550922786495261
 40
0.5740591934570768
 40
0.5740591934570768
 40
0.5740591934570768
 40
0.8079373435765171
 40
0.8079373435765171
 40
0.8079373435765171
 40
1.0
 40
1.0
 40
1.0
 40
1.0
 10
153.6541122787153
 20
215.9455036159353
 30
0.0
 10
153.6551701544536
 20
215.9465679956562
 30
0.0
 10
153.6562272417019
 20
215.9476323778201
 30
0.0
 10
153.6572835220491
 20
215.9486967464667
 30
0.0
 10
153.705754613772
 20
215.9975389979001
 30
0.0
 10
153.7528344055327
 20
216.0466650605328
 30
0.0
 10
153.7966522006884
 20
216.0943619508966
 30
0.0
 10
153.8522983589931
 20
216.1549343439712
 30
0.0
 10
153.9039657730661
 20
216.2146200777916
 30
0.0
 10
153.9457387833304
 20
216.2679055748576
 30
0.0
 10
153.9764488864208
 20
216.3070792685361
 30
0.0
 10
154.0024749715619
 20
216.3436939400715
 30
0.0
 10
154.0196542990002
 20
216.3733785003951
 30
0.0
 10
154.0337562754605
 20
216.3977456342319
 30
0.0
 10
154.0421122787154
 20
216.4179833630164
 30
0.0
 10
154.0421122787154
 20
216.4305392016808
 30
0.0
  0
ARC
  5
3C0
330
326
100
AcDbEntity
  8
AJ_359
  6
Continuous
 62
     7
100
AcDbCircle
 10
150.7421122787
 20
210.9455036159
 30
0.0
 40
3.75
100
AcDbArc
 50
151.6423634237
 51
208.3576365763
  0
ARC
  5
3C1
330
326
100
AcDbEntity
  8
AJ_359
  6
Continuous
 62
     7
100
AcDbCircle
 10
150.7421122787
 20
210.9455036159
 30
0.0
 40
3.75
100
AcDbArc
 50
331.6423634237
 51
28.3576365763
  0
ARC
  5
3C2
330
326
100
AcDbEntity
  8
SPAXSCHRAUBE_3X2
  6
Continuous
 62
     7
100
AcDbCircle
 10
150.9839820231
 20
227.1406112191
 30
0.0
 40
0.4654870695798716
100
AcDbArc
 50
233.6309857988
 51
324.4905643456
  0
ARC
  5
3C3
330
326
100
AcDbEntity
  8
SPAXSCHRAUBE_3X2
  6
Continuous
 62
     7
100
AcDbCircle
 10
152.5684890198
 20
226.2134843236
 30
0.0
 40
1.372871859924417
100
AcDbArc
 50
121.4461265972
 51
151.4203335506
  0
ARC
  5
3C4
330
326
100
AcDbEntity
  8
SPAXSCHRAUBE_3X2
  6
Continuous
 62
     7
100
AcDbCircle
 10
151.6447824533
 20
227.8014116493
 30
0.0
 40
0.4654870695798989
100
AcDbArc
 50
296.470383605
 51
23.076402336
  0
ARC
  5
3C5
330
326
100
AcDbEntity
  8
SPAXSCHRAUBE_3X2
  6
Continuous
 62
     7
100
AcDbCircle
 10
153.2376427378
 20
228.7107999983
 30
0.0
 40
1.372871859924419
100
AcDbArc
 50
182.3006242371
 51
211.9717372349
  0
ARC
  5
3C6
330
326
100
AcDbEntity
  8
SPAXSCHRAUBE_3X2
  6
Continuous
 62
     7
100
AcDbCircle
 10
151.4029127093
 20
228.704081824
 30
0.0
 40
0.4654870695799037
100
AcDbArc
 50
354.0326816502
 51
95.9673181619
  0
ARC
  5
3C7
330
326
100
AcDbEntity
  8
SPAXSCHRAUBE_3X2
  6
Continuous
 62
     7
100
AcDbCircle
 10
151.4096308833
 20
230.5388118528
 30
0.0
 40
1.372871859924416
100
AcDbArc
 50
242.5263208365
 51
267.6993758379
  0
ARC
  5
3C8
330
326
100
AcDbEntity
  8
SPAXSCHRAUBE_3X2
  6
Continuous
 62
     7
100
AcDbCircle
 10
150.5002425343
 20
228.9459515684
 30
0.0
 40
0.465487069579901
100
AcDbArc
 50
53.6309858734
 51
146.0967575649
  0
ARC
  5
3C9
330
326
100
AcDbEntity
  8
SPAXSCHRAUBE_3X2
  6
Continuous
 62
     7
100
AcDbCircle
 10
148.9123152087
 20
229.8696581348
 30
0.0
 40
1.372871859924417
100
AcDbArc
 50
298.579663731
 51
331.0725006113
  0
ARC
  5
3CA
330
326
100
AcDbEntity
  8
SPAXSCHRAUBE_3X2
  6
Continuous
 62
     7
100
AcDbCircle
 10
149.8394421041
 20
228.2851511382
 30
0.0
 40
0.4654870774360689
100
AcDbArc
 50
125.5094436118
 51
216.3690141102
  0
ARC
  5
3CB
330
326
100
AcDbEntity
  8
SPAXSCHRAUBE_3X2
  6
Continuous
 62
     7
100
AcDbCircle
 10
148.2465818196
 20
227.3757627891
 30
0.0
 40
1.372871859924419
100
AcDbArc
 50
358.11897032
 51
27.4736791685
  0
ARC
  5
3CC
330
326
100
AcDbEntity
  8
SPAXSCHRAUBE_3X2
  6
Continuous
 62
     7
100
AcDbCircle
 10
150.0813118484
 20
227.3824809632
 30
0.0
 40
0.4654870695799109
100
AcDbArc
 50
186.386912644
 51
263.613087049
  0
ARC
  5
3CD
330
326
100
AcDbEntity
  8
SPAXSCHRAUBE_3X2
  6
Continuous
 62
     7
100
AcDbCircle
 10
150.0745936742
 20
225.5477509347
 30
0.0
 40
1.37287185992442
100
AcDbArc
 50
62.5263208615
 51
91.8810297745
  0
ARC
  5
3CE
330
326
100
AcDbEntity
  8
AP_592_703MM
  6
Continuous
 62
     7
100
AcDbCircle
 10
150.7421122787
 20
188.2951385444
 30
0.0
 40
3.900000000000001
100
AcDbArc
 50
29.8449626974
 51
150.155037305
  0
ARC
  5
3CF
330
326
100
AcDbEntity
  8
AP_592_703MM
  6
Continuous
 62
     7
100
AcDbCircle
 10
150.7421122786
 20
194.445138545
 30
0.0
 40
5.400000000000002
100
AcDbArc
 50
231.2122159736
 51
308.7877840288
  0
LINE
  5
3D0
330
326
100
AcDbEntity
  8
AP_592_703MM
  6
Continuous
 62
     7
100
AcDbLine
 10
147.730061602
 20
197.4431020217
 30
0.0
 11
148.1755804291
 21
197.4431020217
 31
0.0
  0
ARC
  5
3D1
330
326
100
AcDbEntity
  8
AP_592_703MM
  6
Continuous
 62
     7
100
AcDbCircle
 10
148.1755804291
 20
196.7431020217
 30
0.0
 40
0.6999999999999993
100
AcDbArc
 50
270.0
 51
90.0
  0
LINE
  5
3D2
330
326
100
AcDbEntity
  8
AP_592_703MM
  6
Continuous
 62
     7
100
AcDbLine
 10
148.1755804291
 20
196.0431020217
 30
0.0
 11
147.730061602
 21
196.0431020217
 31
0.0
  0
ARC
  5
3D3
330
326
100
AcDbEntity
  8
AP_592_703MM
  6
Continuous
 62
     7
100
AcDbCircle
 10
147.730061602
 20
196.7431020217
 30
0.0
 40
0.7000000000000027
100
AcDbArc
 50
90.0
 51
270.0
  0
LINE
  5
3D4
330
326
100
AcDbEntity
  8
AP_592_703MM
  6
Continuous
 62
     7
100
AcDbLine
 10
153.3086441281
 20
196.0431020217
 30
0.0
 11
153.7541629552
 21
196.0431020217
 31
0.0
  0
ARC
  5
3D5
330
326
100
AcDbEntity
  8
AP_592_703MM
  6
Continuous
 62
     7
100
AcDbCircle
 10
153.7541629552
 20
196.7431020217
 30
0.0
 40
0.7000000000000027
100
AcDbArc
 50
270.0
 51
90.0
  0
LINE
  5
3D6
330
326
100
AcDbEntity
  8
AP_592_703MM
  6
Continuous
 62
     7
100
AcDbLine
 10
153.7541629552
 20
197.4431020217
 30
0.0
 11
153.3086441281
 21
197.4431020217
 31
0.0
  0
ARC
  5
3D7
330
326
100
AcDbEntity
  8
AP_592_703MM
  6
Continuous
 62
     7
100
AcDbCircle
 10
153.3086441281
 20
196.7431020217
 30
0.0
 40
0.6999999999999993
100
AcDbArc
 50
90.0
 51
270.0
  0
LINE
  5
3D8
330
326
100
AcDbEntity
  8
AP_592_703MM
  6
Continuous
 62
     7
100
AcDbLine
 10
154.7695020875
 20
201.5928706758
 30
0.0
 11
154.6919837643
 21
199.7580072479
 31
0.0
  0
ARC
  5
3D9
330
326
100
AcDbEntity
  8
AP_592_703MM
  6
Continuous
 62
     7
100
AcDbCircle
 10
154.775833559
 20
201.7427369911
 30
0.0
 40
0.150000000000004
100
AcDbArc
 50
87.5808373205
 51
267.5808373205
  0
LINE
  5
3DA
330
326
100
AcDbEntity
  8
AP_592_703MM
  6
Continuous
 62
     7
100
AcDbLine
 10
155.2913540564
 20
213.9451385452
 30
0.0
 11
154.7821650305
 21
201.8926033064
 31
0.0
  0
LINE
  5
3DB
330
326
100
AcDbEntity
  8
AP_592_703MM
  6
Continuous
 62
     7
100
AcDbLine
 10
156.1421122788
 20
213.9451385452
 30
0.0
 11
155.2913540564
 21
213.9451385452
 31
0.0
  0
LINE
  5
3DC
330
326
100
AcDbEntity
  8
AP_592_703MM
  6
Continuous
 62
     7
100
AcDbLine
 10
155.69894318
 20
203.4552989982
 30
0.0
 11
156.1421122788
 21
213.9451385452
 31
0.0
  0
LINE
  5
3DD
330
326
100
AcDbEntity
  8
AP_592_703MM
  6
Continuous
 62
     7
100
AcDbLine
 10
155.4386135352
 20
203.2160742583
 30
0.0
 11
155.69894318
 21
203.4552989982
 31
0.0
  0
LINE
  5
3DE
330
326
100
AcDbEntity
  8
AP_592_703MM
  6
Continuous
 62
     7
100
AcDbLine
 10
155.3119841056
 20
200.2187479519
 30
0.0
 11
155.4386135352
 21
203.2160742583
 31
0.0
  0
LINE
  5
3DF
330
326
100
AcDbEntity
  8
AP_592_703MM
  6
Continuous
 62
     7
100
AcDbLine
 10
155.5421140776
 20
199.9683154344
 30
0.0
 11
155.3119841056
 21
200.2187479519
 31
0.0
  0
LINE
  5
3E0
330
326
100
AcDbEntity
  8
AP_592_703MM
  6
Continuous
 62
     7
100
AcDbLine
 10
155.5421140776
 20
191.7075856172
 30
0.0
 11
155.5421140776
 21
199.9683154344
 31
0.0
  0
ARC
  5
3E1
330
326
100
AcDbEntity
  8
AP_592_703MM
  6
Continuous
 62
     7
100
AcDbCircle
 10
153.2646943558
 20
191.7075856172
 30
0.0
 40
2.277419721799488
100
AcDbArc
 50
312.6597459593
 51
0.0
  0
ARC
  5
3E2
330
326
100
AcDbEntity
  8
AP_592_703MM
  6
Continuous
 62
     7
100
AcDbCircle
 10
150.7421132299
 20
194.4451371493
 30
0.0
 40
5.999999999954547
100
AcDbArc
 50
226.0996692712
 51
312.6597459594
  0
ARC
  5
3E3
330
326
100
AcDbEntity
  8
AP_592_703MM
  6
Continuous
 62
     7
100
AcDbCircle
 10
148.0281446219
 20
191.6249390691
 30
0.0
 40
2.086032343338887
100
AcDbArc
 50
180.0
 51
226.0996692712
  0
LINE
  5
3E4
330
326
100
AcDbEntity
  8
AP_592_703MM
  6
Continuous
 62
     7
100
AcDbLine
 10
145.9421122786
 20
199.9683173918
 30
0.0
 11
145.9421122786
 21
191.6249390691
 31
0.0
  0
LINE
  5
3E5
330
326
100
AcDbEntity
  8
AP_592_703MM
  6
Continuous
 62
     7
100
AcDbLine
 10
146.1722404518
 20
200.2187479519
 30
0.0
 11
145.9421122786
 21
199.9683173918
 31
0.0
  0
LINE
  5
3E6
330
326
100
AcDbEntity
  8
AP_592_703MM
  6
Continuous
 62
     7
100
AcDbLine
 10
146.0456110223
 20
203.2160742583
 30
0.0
 11
146.1722404518
 21
200.2187479519
 31
0.0
  0
LINE
  5
3E7
330
326
100
AcDbEntity
  8
AP_592_703MM
  6
Continuous
 62
     7
100
AcDbLine
 10
145.7852813775
 20
203.4552989982
 30
0.0
 11
146.0456110223
 21
203.2160742583
 31
0.0
  0
LINE
  5
3E8
330
326
100
AcDbEntity
  8
AP_592_703MM
  6
Continuous
 62
     7
100
AcDbLine
 10
145.3421122786
 20
213.9451385452
 30
0.0
 11
145.7852813775
 21
203.4552989982
 31
0.0
  0
LINE
  5
3E9
330
326
100
AcDbEntity
  8
AP_592_703MM
  6
Continuous
 62
     7
100
AcDbLine
 10
146.1928705009
 20
213.9451385452
 30
0.0
 11
145.3421122786
 21
213.9451385452
 31
0.0
  0
LINE
  5
3EA
330
326
100
AcDbEntity
  8
AP_592_703MM
  6
Continuous
 62
     7
100
AcDbLine
 10
146.7020595268
 20
201.8926033064
 30
0.0
 11
146.1928705009
 21
213.9451385452
 31
0.0
  0
ARC
  5
3EB
330
326
100
AcDbEntity
  8
AP_592_703MM
  6
Continuous
 62
     7
100
AcDbCircle
 10
146.7083909982
 20
201.7427369911
 30
0.0
 40
0.1500000000000005
100
AcDbArc
 50
272.4191626795
 51
92.4191626795
  0
LINE
  5
3EC
330
326
100
AcDbEntity
  8
AP_592_703MM
  6
Continuous
 62
     7
100
AcDbLine
 10
146.7922407929
 20
199.7580072479
 30
0.0
 11
146.7147224697
 21
201.5928706758
 31
0.0
  0
LINE
  5
3ED
330
326
100
AcDbEntity
  8
AP_592_703MM
  6
Continuous
 62
     7
100
AcDbLine
 10
146.7922407929
 20
198.0934193898
 30
0.0
 11
146.7922407929
 21
199.7580072479
 31
0.0
  0
LINE
  5
3EE
330
326
100
AcDbEntity
  8
AP_592_703MM
  6
Continuous
 62
     7
100
AcDbLine
 10
147.7921122786
 20
198.0934193898
 30
0.0
 11
146.7922407929
 21
198.0934193898
 31
0.0
  0
LINE
  5
3EF
330
326
100
AcDbEntity
  8
AP_592_703MM
  6
Continuous
 62
     7
100
AcDbLine
 10
147.7921122786
 20
198.2433497815
 30
0.0
 11
147.7921122786
 21
198.0934193898
 31
0.0
  0
ARC
  5
3F0
330
326
100
AcDbEntity
  8
AP_592_703MM
  6
Continuous
 62
     7
100
AcDbCircle
 10
148.0421122786
 20
198.2433497815
 30
0.0
 40
0.2500000000000003
100
AcDbArc
 50
50.0
 51
180.0
  0
LINE
  5
3F1
330
326
100
AcDbEntity
  8
AP_592_703MM
  6
Continuous
 62
     7
100
AcDbLine
 10
149.1160453532
 20
197.6685647571
 30
0.0
 11
148.202809181
 21
198.4348608923
 31
0.0
  0
ARC
  5
3F2
330
326
100
AcDbEntity
  8
AP_592_703MM
  6
Continuous
 62
     7
100
AcDbCircle
 10
148.7946515483
 20
197.2855425355
 30
0.0
 40
0.5
100
AcDbArc
 50
0.0
 51
50.0
  0
LINE
  5
3F3
330
326
100
AcDbEntity
  8
AP_592_703MM
  6
Continuous
 62
     7
100
AcDbLine
 10
149.2946515483
 20
196.1999314467
 30
0.0
 11
149.2946515483
 21
197.2855425355
 31
0.0
  0
ARC
  5
3F4
330
326
100
AcDbEntity
  8
AP_592_703MM
  6
Continuous
 62
     7
100
AcDbCircle
 10
148.7946515483
 20
196.1999314467
 30
0.0
 40
0.5000000000000011
100
AcDbArc
 50
310.0
 51
0.0
  0
LINE
  5
3F5
330
326
100
AcDbEntity
  8
AP_592_703MM
  6
Continuous
 62
     7
100
AcDbLine
 10
148.202809181
 20
195.0506130899
 30
0.0
 11
149.1160453532
 21
195.8169092251
 31
0.0
  0
ARC
  5
3F6
330
326
100
AcDbEntity
  8
AP_592_703MM
  6
Continuous
 62
     7
100
AcDbCircle
 10
148.0421122786
 20
195.2421242007
 30
0.0
 40
0.2499999999999999
100
AcDbArc
 50
179.9840394803
 51
310.0
  0
LINE
  5
3F7
330
326
100
AcDbEntity
  8
AP_592_703MM
  6
Continuous
 62
     7
100
AcDbLine
 10
147.7875430733
 20
195.3920545924
 30
0.0
 11
147.7921122883
 21
195.2421938416
 31
0.0
  0
LINE
  5
3F8
330
326
100
AcDbEntity
  8
AP_592_703MM
  6
Continuous
 62
     7
100
AcDbLine
 10
146.7922407934
 20
195.3920545924
 30
0.0
 11
147.7875430733
 21
195.3920545924
 31
0.0
  0
LINE
  5
3F9
330
326
100
AcDbEntity
  8
AP_592_703MM
  6
Continuous
 62
     7
100
AcDbLine
 10
146.7922407934
 20
190.7595306802
 30
0.0
 11
146.7922407934
 21
195.3920545924
 31
0.0
  0
ARC
  5
3FA
330
326
100
AcDbEntity
  8
AP_592_703MM
  6
Continuous
 62
     7
100
AcDbCircle
 10
146.8481010471
 20
190.7039253022
 30
0.0
 40
0.0788183100623406
100
AcDbArc
 50
135.1310114424
 51
328.2595820011
  0
ARC
  5
3FB
330
326
100
AcDbEntity
  8
AP_592_703MM
  6
Continuous
 62
     7
100
AcDbCircle
 10
150.7421122787
 20
188.2951385444
 30
0.0
 40
4.499999999999992
100
AcDbArc
 50
31.4905360333
 51
148.2595820011
  0
ARC
  5
3FC
330
326
100
AcDbEntity
  8
AP_592_703MM
  6
Continuous
 62
     7
100
AcDbCircle
 10
154.6361235077
 20
190.7039252997
 30
0.0
 40
0.0812664661493969
100
AcDbArc
 50
225.7153387915
 51
46.5776002129
  0
LINE
  5
3FD
330
326
100
AcDbEntity
  8
AP_592_703MM
  6
Continuous
 62
     7
100
AcDbLine
 10
154.6919837615
 20
195.3920545924
 30
0.0
 11
154.6919837615
 21
190.7629496215
 31
0.0
  0
LINE
  5
3FE
330
326
100
AcDbEntity
  8
AP_592_703MM
  6
Continuous
 62
     7
100
AcDbLine
 10
153.696681484
 20
195.3920545924
 30
0.0
 11
154.6919837615
 21
195.3920545924
 31
0.0
  0
LINE
  5
3FF
330
326
100
AcDbEntity
  8
AP_592_703MM
  6
Continuous
 62
     7
100
AcDbLine
 10
153.6921122689
 20
195.2421938416
 30
0.0
 11
153.696681484
 21
195.3920545924
 31
0.0
  0
ARC
  5
400
330
326
100
AcDbEntity
  8
AP_592_703MM
  6
Continuous
 62
     7
100
AcDbCircle
 10
153.4421122786
 20
195.2421242007
 30
0.0
 40
0.2500000000000003
100
AcDbArc
 50
230.0
 51
0.0159605197
  0
LINE
  5
401
330
326
100
AcDbEntity
  8
AP_592_703MM
  6
Continuous
 62
     7
100
AcDbLine
 10
152.368179204
 20
195.8169092251
 30
0.0
 11
153.2814153762
 21
195.0506130899
 31
0.0
  0
ARC
  5
402
330
326
100
AcDbEntity
  8
AP_592_703MM
  6
Continuous
 62
     7
100
AcDbCircle
 10
152.6895730089
 20
196.1999314467
 30
0.0
 40
0.5
100
AcDbArc
 50
180.0
 51
230.0
  0
LINE
  5
403
330
326
100
AcDbEntity
  8
AP_592_703MM
  6
Continuous
 62
     7
100
AcDbLine
 10
152.1895730089
 20
197.2855425355
 30
0.0
 11
152.1895730089
 21
196.1999314467
 31
0.0
  0
ARC
  5
404
330
326
100
AcDbEntity
  8
AP_592_703MM
  6
Continuous
 62
     7
100
AcDbCircle
 10
152.6895730089
 20
197.2855425355
 30
0.0
 40
0.4999999999999998
100
AcDbArc
 50
130.0
 51
180.0
  0
LINE
  5
405
330
326
100
AcDbEntity
  8
AP_592_703MM
  6
Continuous
 62
     7
100
AcDbLine
 10
153.2814153762
 20
198.4348608923
 30
0.0
 11
152.368179204
 21
197.6685647571
 31
0.0
  0
ARC
  5
406
330
326
100
AcDbEntity
  8
AP_592_703MM
  6
Continuous
 62
     7
100
AcDbCircle
 10
153.4421122786
 20
198.2433497815
 30
0.0
 40
0.2500000000000002
100
AcDbArc
 50
0.0
 51
130.0
  0
LINE
  5
407
330
326
100
AcDbEntity
  8
AP_592_703MM
  6
Continuous
 62
     7
100
AcDbLine
 10
153.6921122786
 20
198.0934193898
 30
0.0
 11
153.6921122786
 21
198.2433497815
 31
0.0
  0
LINE
  5
408
330
326
100
AcDbEntity
  8
AP_592_703MM
  6
Continuous
 62
     7
100
AcDbLine
 10
154.6919837643
 20
198.0934193898
 30
0.0
 11
153.6921122786
 21
198.0934193898
 31
0.0
  0
LINE
  5
409
330
326
100
AcDbEntity
  8
AP_592_703MM
  6
Continuous
 62
     7
100
AcDbLine
 10
154.6919837643
 20
199.7580072479
 30
0.0
 11
154.6919837643
 21
198.0934193898
 31
0.0
  0
ENDBLK
  5
40B
330
326
100
AcDbEntity
  8
0
100
AcDbBlockEnd
  0
ENDSEC
  0
SECTION
  2
ENTITIES
  0
MTEXT
  5
6F
330
1F
100
AcDbEntity
  8
Standard
100
AcDbMText
 10
85.3260709096
 20
23.6533484908
 30
0.0
 40
3.5
 41
41.387819017
 46
5.4782608696
 71
     1
 72
     1
  1
{\fArial|b0||i0||c0|p34;\C7;\H3.5;\W1.;/athmer/1-869--q}
 73
     1
 44
1.0
1001
ACAD
1000
ACAD_MTEXT_DEFINED_HEIGHT_BEGIN
1070
    46
1040
5.4782608696
1000
ACAD_MTEXT_DEFINED_HEIGHT_END
  0
INSERT
  5
71
330
1F
100
AcDbEntity
  8
Standard
100
AcDbBlockReference
  2
SE
 10
0.0
 20
0.0
 30
0.0
  0
DIMENSION
  5
174
330
1F
100
AcDbEntity
  8
Standard
  6
Continuous
 62
     7
100
AcDbDimension
  2
DMBLK17
 10
59.5106099283
 20
240.4146072279
 30
0.0
 11
65.9106097667
 21
240.4146072279
 31
0.0
 70
   161
  1
\A1;<>
 71
     5
 42
-1.0
 73
     0
 74
     0
 75
     0
  3
E-Katalog
100
AcDbAlignedDimension
 13
59.5106099283
 23
218.7285636376
 33
0.0
 14
72.3106099283
 24
218.7285636376
 34
0.0
  0
DIMENSION
  5
17E
330
1F
100
AcDbEntity
  8
Standard
  6
Continuous
 62
     7
100
AcDbDimension
  2
DMBLK18
 10
78.3436204074
 20
189.7285636376
 30
0.0
 11
78.3436204074
 21
204.7285639729
 31
0.0
 70
   160
  1
\A1;<>
 71
     5
 42
-1.0
 73
     0
 74
     0
 75
     0
  3
E-Katalog
100
AcDbAlignedDimension
 13
71.3106099283
 23
219.7285636376
 33
0.0
 14
72.1106099283
 24
189.7285636376
 34
0.0
 50
90.0
100
AcDbRotatedDimension
  0
INSERT
  5
189
330
1F
100
AcDbEntity
  8
Standard
100
AcDbBlockReference
  2
SE1
 10
0.0
 20
0.0
 30
0.0
  0
DIMENSION
  5
24D
330
1F
100
AcDbEntity
  8
Standard
  6
Continuous
 62
     7
100
AcDbDimension
  2
DMBLK19
 10
61.0297832642
 20
136.5724996805
 30
0.0
 11
67.4297831025
 21
136.5724996805
 31
0.0
 70
   161
  1
\A1;<>
 71
     5
 42
-1.0
 73
     0
 74
     0
 75
     0
  3
E-Katalog
100
AcDbAlignedDimension
 13
61.0297832642
 23
129.5756724804
 33
0.0
 14
73.8297832642
 24
129.5756724804
 34
0.0
  0
DIMENSION
  5
257
330
1F
100
AcDbEntity
  8
Standard
  6
Continuous
 62
     7
100
AcDbDimension
  2
DMBLK20
 10
79.8414292034
 20
100.5756724804
 30
0.0
 11
79.8414292034
 21
115.5756728157
 31
0.0
 70
   160
  1
\A1;<>
 71
     5
 42
-1.0
 73
     0
 74
     0
 75
     0
  3
E-Katalog
100
AcDbAlignedDimension
 13
72.8297832642
 23
130.5756724804
 33
0.0
 14
73.6297832642
 24
100.5756724804
 34
0.0
 50
90.0
100
AcDbRotatedDimension
  0
INSERT
  5
262
330
1F
100
AcDbEntity
  8
Standard
100
AcDbBlockReference
  2
SE2
 10
0.0
 20
0.0
 30
0.0
  0
INSERT
  5
327
330
1F
100
AcDbEntity
  8
Standard
100
AcDbBlockReference
  2
SE3
 10
0.0
 20
0.0
 30
0.0
  0
LINE
  5
40C
330
1F
100
AcDbEntity
  8
Standard
  6
Continuous
 62
     7
100
AcDbLine
 10
18.1568766159
 20
171.0856000139
 30
0.0
 11
198.0131616313
 21
171.0856000139
 31
0.0
  0
LINE
  5
40D
330
1F
100
AcDbEntity
  8
Standard
  6
Continuous
 62
     7
100
AcDbLine
 10
108.0850191236
 20
248.4701847857
 30
0.0
 11
108.0850191236
 21
78.496657704
 31
0.0
  0
LINE
  5
40E
330
1F
100
AcDbEntity
  8
Standard
  6
Continuous
 62
     7
100
AcDbLine
 10
98.0850191236
 20
161.0856000139
 30
0.0
 11
118.0850191236
 21
161.0856000139
 31
0.0
  0
LINE
  5
40F
330
1F
100
AcDbEntity
  8
Standard
  6
Continuous
 62
     7
100
AcDbLine
 10
118.0850191236
 20
161.0856000139
 30
0.0
 11
118.0850191236
 21
181.0856000139
 31
0.0
  0
LINE
  5
410
330
1F
100
AcDbEntity
  8
Standard
  6
Continuous
 62
     7
100
AcDbLine
 10
118.0850191236
 20
181.0856000139
 30
0.0
 11
98.0850191236
 21
181.0856000139
 31
0.0
  0
LINE
  5
411
330
1F
100
AcDbEntity
  8
Standard
  6
Continuous
 62
     7
100
AcDbLine
 10
98.0850191236
 20
181.0856000139
 30
0.0
 11
98.0850191236
 21
161.0856000139
 31
0.0
  0
MTEXT
  5
412
330
1F
100
AcDbEntity
  8
Standard
100
AcDbMText
 10
100.4611465202
 20
178.052915195
 30
0.0
 40
3.5
 41
16.038859927
 46
16.4347926087
 71
     1
 72
     1
  1
{\fArial|b0||i0||c0|p34;\C7;\H3.5;\W1.;A      B\P}{\fArial|b0||i0||c0|p34;\C7;\H3.5;\W1.;\P}{\fArial|b0||i0||c0|p34;\C7;\H3.5;\W1.;C      D}
 73
     1
 44
1.0
1001
ACAD
1000
ACAD_MTEXT_DEFINED_HEIGHT_BEGIN
1070
    46
1040
16.4347926087
1000
ACAD_MTEXT_DEFINED_HEIGHT_END
  0
ENDSEC
  0
SECTION
  2
OBJECTS
  0
DICTIONARY
  5
C
330
0
100
AcDbDictionary
281
     1
  3
ACAD_DETAILVIEWSTYLE
350
44E
  3
ACAD_GROUP
350
D
  3
ACAD_LAYOUT
350
1A
  3
ACAD_MATERIAL
350
43
  3
ACAD_MLEADERSTYLE
350
6B
  3
ACAD_MLINESTYLE
350
17
  3
ACAD_PLOTSETTINGS
350
19
  3
ACAD_PLOTSTYLENAME
350
E
  3
ACAD_SCALELIST
350
47
  3
ACAD_SECTIONVIEWSTYLE
350
44F
  3
ACAD_TABLESTYLE
350
69
  3
ACAD_VISUALSTYLE
350
2A
  3
ACDB_RECOMPOSE_DATA
350
44B
  3
AcDbVariableDictionary
350
413
  0
SUN
  5
6D
330
29
100
AcDbSun
 90
        1
290
     0
 63
     7
421
 16777215
 40
1.0
291
     1
 91
  2455826
 92
 54000000
292
     0
 70
     2
 71
   256
280
     1
  0
DICTIONARY
  5
44E
102
{ACAD_REACTORS
330
C
102
}
330
C
100
AcDbDictionary
281
     1
  0
DICTIONARY
  5
D
102
{ACAD_REACTORS
330
C
102
}
330
C
100
AcDbDictionary
281
     1
  0
DICTIONARY
  5
1A
102
{ACAD_REACTORS
330
C
102
}
330
C
100
AcDbDictionary
281
     1
  3
Layout1
350
1E
  3
Model
350
22
  0
DICTIONARY
  5
43
102
{ACAD_REACTORS
330
C
102
}
330
C
100
AcDbDictionary
281
     1
  3
ByBlock
350
45
  3
ByLayer
350
44
  3
Global
350
46
  0
DICTIONARY
  5
6B
102
{ACAD_REACTORS
330
C
102
}
330
C
100
AcDbDictionary
281
     1
  3
Standard
350
6C
  0
DICTIONARY
  5
17
102
{ACAD_REACTORS
330
C
102
}
330
C
100
AcDbDictionary
281
     1
  3
Standard
350
18
  0
DICTIONARY
  5
19
102
{ACAD_REACTORS
330
C
102
}
330
C
100
AcDbDictionary
281
     1
  0
ACDBDICTIONARYWDFLT
  5
E
102
{ACAD_REACTORS
330
C
102
}
330
C
100
AcDbDictionary
281
     1
  3
Normal
350
F
100
AcDbDictionaryWithDefault
340
F
  0
DICTIONARY
  5
47
102
{ACAD_REACTORS
330
C
102
}
330
C
100
AcDbDictionary
281
     1
  3
A0
350
48
  3
A1
350
49
  3
A2
350
4A
  3
A3
350
4B
  3
A4
350
4C
  3
A5
350
4D
  3
A6
350
4E
  3
A7
350
4F
  3
A8
350
50
  3
A9
350
51
  3
B0
350
52
  3
B1
350
53
  3
B2
350
54
  3
B3
350
55
  3
B4
350
56
  3
B5
350
57
  3
B6
350
58
  3
B7
350
59
  3
B8
350
5A
  3
B9
350
5B
  3
C0
350
5C
  3
C1
350
5D
  3
C2
350
5E
  3
C3
350
5F
  3
C4
350
60
  3
C5
350
61
  3
C6
350
62
  3
C7
350
63
  3
C8
350
64
  3
C9
350
65
  3
D0
350
66
  3
D1
350
67
  3
D2
350
68
  0
DICTIONARY
  5
44F
102
{ACAD_REACTORS
330
C
102
}
330
C
100
AcDbDictionary
281
     1
  0
DICTIONARY
  5
69
102
{ACAD_REACTORS
330
C
102
}
330
C
100
AcDbDictionary
281
     1
  3
Standard
350
6A
  0
DICTIONARY
  5
2A
102
{ACAD_REACTORS
330
C
102
}
330
C
100
AcDbDictionary
281
     1
  3
2dWireframe
350
2F
  3
Basic
350
32
  3
Brighten
350
36
  3
ColorChange
350
3A
  3
Conceptual
350
34
  3
Dim
350
35
  3
EdgeColorOff
350
3D
  3
Facepattern
350
39
  3
Flat
350
2B
  3
FlatWithEdges
350
2C
  3
Gouraud
350
2D
  3
GouraudWithEdges
350
2E
  3
Hidden
350
31
  3
JitterOff
350
3B
  3
Linepattern
350
38
  3
OverhangOff
350
3C
  3
Realistic
350
33
  3
Shaded
350
42
  3
Shaded with edges
350
41
  3
Shades of Gray
350
3E
  3
Sketchy
350
3F
  3
Thicken
350
37
  3
Wireframe
350
30
  3
X-Ray
350
40
  0
XRECORD
  5
44B
102
{ACAD_REACTORS
330
C
102
}
330
C
100
AcDbXrecord
280
     1
 90
        1
330
6A
  0
DICTIONARY
  5
413
102
{ACAD_REACTORS
330
C
102
}
330
C
100
AcDbDictionary
281
     1
  3
CANNOSCALE
350
414
  3
CMLEADERSTYLE
350
44D
  3
CTABLESTYLE
350
44C
  3
XCLIPFRAME
350
415
  0
LAYOUT
  5
1E
102
{ACAD_REACTORS
330
1A
102
}
330
1A
100
AcDbPlotSettings
  1

  2
none_device
  4

  6

 40
0.0
 41
0.0
 42
0.0
 43
0.0
 44
0.0
 45
0.0
 46
0.0
 47
0.0
 48
0.0
 49
0.0
140
0.0
141
0.0
142
1.0
143
1.0
 70
   688
 72
     1
 73
     0
 74
     5
  7

 75
    16
 76
     0
 77
     2
 78
   300
147
1.0
148
0.0
149
0.0
100
AcDbLayout
  1
Layout1
 70
     1
 71
     1
 10
0.0
 20
0.0
 11
215.9
 21
279.4
 12
0.0
 22
0.0
 32
0.0
 14
0.0
 24
0.0
 34
0.0
 15
215.9
 25
279.4
 35
0.0
146
0.0
 13
0.0
 23
0.0
 33
0.0
 16
1.0
 26
0.0
 36
0.0
 17
0.0
 27
1.0
 37
0.0
 76
     0
330
1B
  0
LAYOUT
  5
22
102
{ACAD_REACTORS
330
1A
102
}
330
1A
100
AcDbPlotSettings
  1

  2
none_device
  4
Letter_(8.50_x_11.00_Inches)
  6

 40
6.35
 41
6.35
 42
6.35000508
 43
6.35000508
 44
215.9
 45
279.4
 46
0.0
 47
0.0
 48
0.0
 49
0.0
140
0.0
141
0.0
142
1.0
143
1.0
 70
  1712
 72
     1
 73
     0
 74
     0
  7

 75
     0
 76
     0
 77
     2
 78
   300
147
1.0
148
0.0
149
0.0
100
AcDbLayout
  1
Model
 70
     1
 71
     0
 10
0.0
 20
0.0
 11
215.9
 21
279.4
 12
0.0
 22
0.0
 32
0.0
 14
0.0
 24
0.0
 34
0.0
 15
215.9
 25
279.4
 35
0.0
146
0.0
 13
0.0
 23
0.0
 33
0.0
 16
1.0
 26
0.0
 36
0.0
 17
0.0
 27
1.0
 37
0.0
 76
     0
330
1F
331
29
  0
MATERIAL
  5
45
102
{ACAD_REACTORS
330
43
102
}
330
43
100
AcDbMaterial
  1
ByBlock
 72
     1
 94
      127
  0
MATERIAL
  5
44
102
{ACAD_REACTORS
330
43
102
}
330
43
100
AcDbMaterial
  1
ByLayer
 72
     1
 94
      127
  0
MATERIAL
  5
46
102
{ACAD_REACTORS
330
43
102
}
330
43
100
AcDbMaterial
  1
Global
 72
     1
 94
      127
  0
MLEADERSTYLE
  5
6C
102
{ACAD_REACTORS
330
6B
102
}
102
{ACAD_XDICTIONARY
360
449
102
}
330
6B
100
AcDbMLeaderStyle
170
     2
171
     1
172
     0
 90
        2
 40
0.0
 41
0.0
173
     1
 91
-1056964608
340
14
 92
       -2
290
     1
 42
2.0
291
     1
 43
8.0
  3
Standard
341
0
 44
4.0
300

342
11
174
     1
178
     6
175
     1
176
     0
 93
-1056964608
 45
4.0
292
     0
297
     0
 46
4.0
343
0
 94
-1056964608
 47
1.0
 49
1.0
140
1.0
293
     1
141
0.0
294
     1
177
     0
142
1.0
295
     0
296
     0
143
3.75
1001
ACAD_MLEADERVER
1070
     2
  0
MLINESTYLE
  5
18
102
{ACAD_REACTORS
330
17
102
}
330
17
100
AcDbMlineStyle
  2
Standard
 70
     0
  3

 62
   256
 51
90.0
 52
90.0
 71
     2
 49
0.5
 62
   256
  6
BYLAYER
 49
-0.5
 62
   256
  6
BYLAYER
  0
ACDBPLACEHOLDER
  5
F
102
{ACAD_REACTORS
330
E
102
}
330
E
  0
SCALE
  5
48
102
{ACAD_REACTORS
330
47
102
}
330
47
100
AcDbScale
 70
     0
300
1:1
140
1.0
141
1.0
290
     1
  0
SCALE
  5
49
102
{ACAD_REACTORS
330
47
102
}
330
47
100
AcDbScale
 70
     0
300
1:2
140
1.0
141
2.0
290
     0
  0
SCALE
  5
4A
102
{ACAD_REACTORS
330
47
102
}
330
47
100
AcDbScale
 70
     0
300
1:4
140
1.0
141
4.0
290
     0
  0
SCALE
  5
4B
102
{ACAD_REACTORS
330
47
102
}
330
47
100
AcDbScale
 70
     0
300
1:5
140
1.0
141
5.0
290
     0
  0
SCALE
  5
4C
102
{ACAD_REACTORS
330
47
102
}
330
47
100
AcDbScale
 70
     0
300
1:8
140
1.0
141
8.0
290
     0
  0
SCALE
  5
4D
102
{ACAD_REACTORS
330
47
102
}
330
47
100
AcDbScale
 70
     0
300
1:10
140
1.0
141
10.0
290
     0
  0
SCALE
  5
4E
102
{ACAD_REACTORS
330
47
102
}
330
47
100
AcDbScale
 70
     0
300
1:16
140
1.0
141
16.0
290
     0
  0
SCALE
  5
4F
102
{ACAD_REACTORS
330
47
102
}
330
47
100
AcDbScale
 70
     0
300
1:20
140
1.0
141
20.0
290
     0
  0
SCALE
  5
50
102
{ACAD_REACTORS
330
47
102
}
330
47
100
AcDbScale
 70
     0
300
1:30
140
1.0
141
30.0
290
     0
  0
SCALE
  5
51
102
{ACAD_REACTORS
330
47
102
}
330
47
100
AcDbScale
 70
     0
300
1:40
140
1.0
141
40.0
290
     0
  0
SCALE
  5
52
102
{ACAD_REACTORS
330
47
102
}
330
47
100
AcDbScale
 70
     0
300
1:50
140
1.0
141
50.0
290
     0
  0
SCALE
  5
53
102
{ACAD_REACTORS
330
47
102
}
330
47
100
AcDbScale
 70
     0
300
1:100
140
1.0
141
100.0
290
     0
  0
SCALE
  5
54
102
{ACAD_REACTORS
330
47
102
}
330
47
100
AcDbScale
 70
     0
300
2:1
140
2.0
141
1.0
290
     0
  0
SCALE
  5
55
102
{ACAD_REACTORS
330
47
102
}
330
47
100
AcDbScale
 70
     0
300
4:1
140
4.0
141
1.0
290
     0
  0
SCALE
  5
56
102
{ACAD_REACTORS
330
47
102
}
330
47
100
AcDbScale
 70
     0
300
8:1
140
8.0
141
1.0
290
     0
  0
SCALE
  5
57
102
{ACAD_REACTORS
330
47
102
}
330
47
100
AcDbScale
 70
     0
300
10:1
140
10.0
141
1.0
290
     0
  0
SCALE
  5
58
102
{ACAD_REACTORS
330
47
102
}
330
47
100
AcDbScale
 70
     0
300
100:1
140
100.0
141
1.0
290
     0
  0
SCALE
  5
59
102
{ACAD_REACTORS
330
47
102
}
330
47
100
AcDbScale
 70
     0
300
1/128" = 1'-0"
140
0.0078125
141
12.0
290
     0
  0
SCALE
  5
5A
102
{ACAD_REACTORS
330
47
102
}
330
47
100
AcDbScale
 70
     0
300
1/64" = 1'-0"
140
0.015625
141
12.0
290
     0
  0
SCALE
  5
5B
102
{ACAD_REACTORS
330
47
102
}
330
47
100
AcDbScale
 70
     0
300
1/32" = 1'-0"
140
0.03125
141
12.0
290
     0
  0
SCALE
  5
5C
102
{ACAD_REACTORS
330
47
102
}
330
47
100
AcDbScale
 70
     0
300
1/16" = 1'-0"
140
0.0625
141
12.0
290
     0
  0
SCALE
  5
5D
102
{ACAD_REACTORS
330
47
102
}
330
47
100
AcDbScale
 70
     0
300
3/32" = 1'-0"
140
0.09375
141
12.0
290
     0
  0
SCALE
  5
5E
102
{ACAD_REACTORS
330
47
102
}
330
47
100
AcDbScale
 70
     0
300
1/8" = 1'-0"
140
0.125
141
12.0
290
     0
  0
SCALE
  5
5F
102
{ACAD_REACTORS
330
47
102
}
330
47
100
AcDbScale
 70
     0
300
3/16" = 1'-0"
140
0.1875
141
12.0
290
     0
  0
SCALE
  5
60
102
{ACAD_REACTORS
330
47
102
}
330
47
100
AcDbScale
 70
     0
300
1/4" = 1'-0"
140
0.25
141
12.0
290
     0
  0
SCALE
  5
61
102
{ACAD_REACTORS
330
47
102
}
330
47
100
AcDbScale
 70
     0
300
3/8" = 1'-0"
140
0.375
141
12.0
290
     0
  0
SCALE
  5
62
102
{ACAD_REACTORS
330
47
102
}
330
47
100
AcDbScale
 70
     0
300
1/2" = 1'-0"
140
0.5
141
12.0
290
     0
  0
SCALE
  5
63
102
{ACAD_REACTORS
330
47
102
}
330
47
100
AcDbScale
 70
     0
300
3/4" = 1'-0"
140
0.75
141
12.0
290
     0
  0
SCALE
  5
64
102
{ACAD_REACTORS
330
47
102
}
330
47
100
AcDbScale
 70
     0
300
1" = 1'-0"
140
1.0
141
12.0
290
     0
  0
SCALE
  5
65
102
{ACAD_REACTORS
330
47
102
}
330
47
100
AcDbScale
 70
     0
300
1-1/2" = 1'-0"
140
1.5
141
12.0
290
     0
  0
SCALE
  5
66
102
{ACAD_REACTORS
330
47
102
}
330
47
100
AcDbScale
 70
     0
300
3" = 1'-0"
140
3.0
141
12.0
290
     0
  0
SCALE
  5
67
102
{ACAD_REACTORS
330
47
102
}
330
47
100
AcDbScale
 70
     0
300
6" = 1'-0"
140
6.0
141
12.0
290
     0
  0
SCALE
  5
68
102
{ACAD_REACTORS
330
47
102
}
330
47
100
AcDbScale
 70
     0
300
1'-0" = 1'-0"
140
12.0
141
12.0
290
     0
  0
TABLESTYLE
  5
6A
102
{ACAD_REACTORS
330
69
102
}
102
{ACAD_XDICTIONARY
360
446
102
}
330
69
100
AcDbTableStyle
  3
Standard
 70
     0
 71
     0
 40
0.06
 41
0.06
280
     0
281
     0
  7
Standard
140
4.5
170
     2
 62
     0
 63
   257
283
     0
 90
        4
 91
        0
  1

274
    -2
284
     1
 64
     0
275
    -2
285
     1
 65
     0
276
    -2
286
     1
 66
     0
277
    -2
287
     1
 67
     0
278
    -2
288
     1
 68
     0
279
    -2
289
     1
 69
     0
  7
Standard
140
6.0
170
     5
 62
     0
 63
   257
283
     0
 90
        4
 91
        0
  1

274
    -2
284
     1
 64
     0
275
    -2
285
     1
 65
     0
276
    -2
286
     1
 66
     0
277
    -2
287
     1
 67
     0
278
    -2
288
     1
 68
     0
279
    -2
289
     1
 69
     0
  7
Standard
140
4.5
170
     5
 62
     0
 63
   257
283
     0
 90
        4
 91
        0
  1

274
    -2
284
     1
 64
     0
275
    -2
285
     1
 65
     0
276
    -2
286
     1
 66
     0
277
    -2
287
     1
 67
     0
278
    -2
288
     1
 68
     0
279
    -2
289
     1
 69
     0
  0
VISUALSTYLE
  5
2F
102
{ACAD_REACTORS
330
2A
102
}
102
{ACAD_XDICTIONARY
360
41E
102
}
330
2A
100
AcDbVisualStyle
  2
2dWireframe
 70
     4
 71
     0
 72
     2
 73
     0
 90
        0
 40
0.6
 41
30.0
 62
     5
 63
     7
421
 16777215
 74
     1
 91
        4
 64
     7
 65
   257
 75
     1
175
     1
 42
1.0
 92
        0
 66
   257
 43
1.0
 76
     1
 77
     6
 78
     2
 67
     7
 79
     5
170
     0
171
     0
290
     0
174
     0
 93
        1
 44
0.0
173
     0
291
     0
 45
0.0
  0
VISUALSTYLE
  5
32
102
{ACAD_REACTORS
330
2A
102
}
102
{ACAD_XDICTIONARY
360
424
102
}
330
2A
100
AcDbVisualStyle
  2
Basic
 70
     7
 71
     1
 72
     0
 73
     1
 90
        0
 40
0.6
 41
30.0
 62
     5
 63
     7
421
 16777215
 74
     0
 91
        4
 64
     7
 65
   257
 75
     1
175
     1
 42
1.0
 92
        8
 66
     7
 43
1.0
 76
     1
 77
     6
 78
     2
 67
     7
 79
     5
170
     0
171
     0
290
     0
174
     0
 93
        1
 44
0.0
173
     0
291
     1
 45
0.0
  0
VISUALSTYLE
  5
36
102
{ACAD_REACTORS
330
2A
102
}
102
{ACAD_XDICTIONARY
360
42C
102
}
330
2A
100
AcDbVisualStyle
  2
Brighten
 70
    12
 71
     2
 72
     2
 73
     0
 90
        0
 40
0.6
 41
30.0
 62
     5
 63
     7
421
 16777215
 74
     1
 91
        4
 64
     7
 65
   257
 75
     1
175
     1
 42
1.0
 92
        8
 66
     7
 43
1.0
 76
     1
 77
     6
 78
     2
 67
     7
 79
     5
170
     0
171
     0
290
     0
174
     0
 93
        1
 44
50.0
173
     0
291
     1
 45
0.0
  0
VISUALSTYLE
  5
3A
102
{ACAD_REACTORS
330
2A
102
}
102
{ACAD_XDICTIONARY
360
434
102
}
330
2A
100
AcDbVisualStyle
  2
ColorChange
 70
    16
 71
     2
 72
     2
 73
     3
 90
        0
 40
0.6
 41
30.0
 62
     5
 63
     8
421
  8421504
 74
     1
 91
        4
 64
     7
 65
   257
 75
     1
175
     1
 42
1.0
 92
        8
 66
     8
424
  8421504
 43
1.0
 76
     1
 77
     6
 78
     2
 67
     7
 79
     5
170
     0
171
     0
290
     0
174
     0
 93
        1
 44
0.0
173
     0
291
     1
 45
0.0
  0
VISUALSTYLE
  5
34
102
{ACAD_REACTORS
330
2A
102
}
102
{ACAD_XDICTIONARY
360
428
102
}
330
2A
100
AcDbVisualStyle
  2
Conceptual
 70
     9
 71
     3
 72
     2
 73
     0
 90
        0
 40
0.6
 41
30.0
 62
     5
 63
     7
421
 16777215
 74
     2
 91
        2
 64
     7
 65
   257
 75
     1
175
     1
 42
179.0
 92
        8
 66
     7
 43
1.0
 76
     1
 77
     6
 78
     2
 67
     7
 79
     3
170
     0
171
     0
290
     0
174
     0
 93
        1
 44
0.0
173
     0
291
     0
 45
0.0
  0
VISUALSTYLE
  5
35
102
{ACAD_REACTORS
330
2A
102
}
102
{ACAD_XDICTIONARY
360
42A
102
}
330
2A
100
AcDbVisualStyle
  2
Dim
 70
    11
 71
     2
 72
     2
 73
     0
 90
        0
 40
0.6
 41
30.0
 62
     5
 63
     7
421
 16777215
 74
     1
 91
        4
 64
     7
 65
   257
 75
     1
175
     1
 42
1.0
 92
        8
 66
     7
 43
1.0
 76
     1
 77
     6
 78
     2
 67
     7
 79
     5
170
     0
171
     0
290
     0
174
     0
 93
        1
 44
-50.0
173
     0
291
     1
 45
0.0
  0
VISUALSTYLE
  5
3D
102
{ACAD_REACTORS
330
2A
102
}
102
{ACAD_XDICTIONARY
360
43A
102
}
330
2A
100
AcDbVisualStyle
  2
EdgeColorOff
 70
    22
 71
     2
 72
     2
 73
     0
 90
        0
 40
0.6
 41
30.0
 62
     5
 63
     7
421
 16777215
 74
     1
 91
        4
 64
     7
 65
   257
 75
     1
175
     1
 42
1.0
 92
        8
 66
     7
 43
1.0
 76
     1
 77
     6
 78
     2
 67
     7
 79
     5
170
     0
171
     0
290
     0
174
     0
 93
        1
 44
0.0
173
     0
291
     1
 45
0.0
  0
VISUALSTYLE
  5
39
102
{ACAD_REACTORS
330
2A
102
}
102
{ACAD_XDICTIONARY
360
432
102
}
330
2A
100
AcDbVisualStyle
  2
Facepattern
 70
    15
 71
     2
 72
     2
 73
     0
 90
        0
 40
0.6
 41
30.0
 62
     5
 63
     7
421
 16777215
 74
     1
 91
        4
 64
     7
 65
   257
 75
     1
175
     1
 42
1.0
 92
        8
 66
     7
 43
1.0
 76
     1
 77
     6
 78
     2
 67
     7
 79
     5
170
     0
171
     0
290
     0
174
     0
 93
        1
 44
0.0
173
     0
291
     1
 45
0.0
  0
VISUALSTYLE
  5
2B
102
{ACAD_REACTORS
330
2A
102
}
102
{ACAD_XDICTIONARY
360
416
102
}
330
2A
100
AcDbVisualStyle
  2
Flat
 70
     0
 71
     2
 72
     1
 73
     1
 90
        2
 40
0.6
 41
30.0
 62
     5
 63
     7
421
 16777215
 74
     0
 91
        0
 64
     7
 65
   257
 75
     1
175
     1
 42
1.0
 92
        8
 66
     7
 43
1.0
 76
     1
 77
     6
 78
     2
 67
     7
 79
     5
170
     0
171
     0
290
     0
174
     0
 93
       13
 44
0.0
173
     0
291
     1
 45
0.0
  0
VISUALSTYLE
  5
2C
102
{ACAD_REACTORS
330
2A
102
}
102
{ACAD_XDICTIONARY
360
418
102
}
330
2A
100
AcDbVisualStyle
  2
FlatWithEdges
 70
     1
 71
     2
 72
     1
 73
     1
 90
        2
 40
0.6
 41
30.0
 62
     5
 63
     7
421
 16777215
 74
     1
 91
        0
 64
     7
 65
   257
 75
     1
175
     1
 42
1.0
 92
        0
 66
   257
 43
1.0
 76
     1
 77
     6
 78
     2
 67
     7
 79
     5
170
     0
171
     0
290
     0
174
     0
 93
       13
 44
0.0
173
     0
291
     1
 45
0.0
  0
VISUALSTYLE
  5
2D
102
{ACAD_REACTORS
330
2A
102
}
102
{ACAD_XDICTIONARY
360
41A
102
}
330
2A
100
AcDbVisualStyle
  2
Gouraud
 70
     2
 71
     2
 72
     2
 73
     1
 90
        2
 40
0.6
 41
30.0
 62
     5
 63
     7
421
 16777215
 74
     0
 91
        0
 64
     7
 65
   257
 75
     1
175
     1
 42
1.0
 92
        0
 66
     7
 43
1.0
 76
     1
 77
     6
 78
     2
 67
     7
 79
     5
170
     0
171
     0
290
     0
174
     0
 93
       13
 44
0.0
173
     0
291
     1
 45
0.0
  0
VISUALSTYLE
  5
2E
102
{ACAD_REACTORS
330
2A
102
}
102
{ACAD_XDICTIONARY
360
41C
102
}
330
2A
100
AcDbVisualStyle
  2
GouraudWithEdges
 70
     3
 71
     2
 72
     2
 73
     1
 90
        2
 40
0.6
 41
30.0
 62
     5
 63
     7
421
 16777215
 74
     1
 91
        0
 64
     7
 65
   257
 75
     1
175
     1
 42
1.0
 92
        0
 66
   257
 43
1.0
 76
     1
 77
     6
 78
     2
 67
     7
 79
     5
170
     0
171
     0
290
     0
174
     0
 93
       13
 44
0.0
173
     0
291
     1
 45
0.0
  0
VISUALSTYLE
  5
31
102
{ACAD_REACTORS
330
2A
102
}
102
{ACAD_XDICTIONARY
360
422
102
}
330
2A
100
AcDbVisualStyle
  2
Hidden
 70
     6
 71
     1
 72
     2
 73
     2
 90
        0
 40
0.6
 41
30.0
 62
     5
 63
     7
421
 16777215
 74
     2
 91
        2
 64
     7
 65
   257
 75
     2
175
     1
 42
40.0
 92
        0
 66
   257
 43
1.0
 76
     1
 77
     6
 78
     2
 67
     7
 79
     3
170
     0
171
     0
290
     0
174
     0
 93
        1
 44
0.0
173
     0
291
     0
 45
0.0
  0
VISUALSTYLE
  5
3B
102
{ACAD_REACTORS
330
2A
102
}
102
{ACAD_XDICTIONARY
360
436
102
}
330
2A
100
AcDbVisualStyle
  2
JitterOff
 70
    20
 71
     2
 72
     2
 73
     0
 90
        0
 40
0.6
 41
30.0
 62
     5
 63
     7
421
 16777215
 74
     1
 91
        4
 64
     7
 65
   257
 75
     1
175
     1
 42
1.0
 92
       10
 66
     7
 43
1.0
 76
     1
 77
     6
 78
     2
 67
     7
 79
     5
170
     0
171
     0
290
     0
174
     0
 93
        1
 44
0.0
173
     0
291
     1
 45
0.0
  0
VISUALSTYLE
  5
38
102
{ACAD_REACTORS
330
2A
102
}
102
{ACAD_XDICTIONARY
360
430
102
}
330
2A
100
AcDbVisualStyle
  2
Linepattern
 70
    14
 71
     2
 72
     2
 73
     0
 90
        0
 40
0.6
 41
30.0
 62
     5
 63
     7
421
 16777215
 74
     1
 91
        4
 64
     7
 65
   257
 75
     7
175
     7
 42
1.0
 92
        8
 66
     7
 43
1.0
 76
     1
 77
     6
 78
     2
 67
     7
 79
     5
170
     0
171
     0
290
     0
174
     0
 93
        1
 44
0.0
173
     0
291
     1
 45
0.0
  0
VISUALSTYLE
  5
3C
102
{ACAD_REACTORS
330
2A
102
}
102
{ACAD_XDICTIONARY
360
438
102
}
330
2A
100
AcDbVisualStyle
  2
OverhangOff
 70
    21
 71
     2
 72
     2
 73
     0
 90
        0
 40
0.6
 41
30.0
 62
     5
 63
     7
421
 16777215
 74
     1
 91
        4
 64
     7
 65
   257
 75
     1
175
     1
 42
1.0
 92
        9
 66
     7
 43
1.0
 76
     1
 77
     6
 78
     2
 67
     7
 79
     5
170
     0
171
     0
290
     0
174
     0
 93
        1
 44
0.0
173
     0
291
     1
 45
0.0
  0
VISUALSTYLE
  5
33
102
{ACAD_REACTORS
330
2A
102
}
102
{ACAD_XDICTIONARY
360
426
102
}
330
2A
100
AcDbVisualStyle
  2
Realistic
 70
     8
 71
     2
 72
     3
 73
     0
 90
        2
 40
0.6
 41
30.0
 62
     5
 63
     7
421
 16777215
 74
     0
 91
        0
 64
     7
 65
   257
 75
     1
175
     1
 42
1.0
 92
        8
 66
   257
 43
1.0
 76
     1
 77
     6
 78
     2
 67
     7
 79
     3
170
     0
171
     0
290
     0
174
     0
 93
       13
 44
0.0
173
     0
291
     0
 45
0.0
  0
VISUALSTYLE
  5
42
102
{ACAD_REACTORS
330
2A
102
}
102
{ACAD_XDICTIONARY
360
444
102
}
330
2A
100
AcDbVisualStyle
  2
Shaded
 70
    27
 71
     2
 72
     2
 73
     1
 90
        2
 40
0.6
 41
30.0
 62
     5
 63
     7
421
 16777215
 74
     0
 91
        4
 64
     7
 65
   257
 75
     1
175
     1
 42
1.0
 92
        8
 66
   257
 43
1.0
 76
     1
 77
     6
 78
     2
 67
     8
425
  7895160
 79
     3
170
     0
171
     0
290
     0
174
     0
 93
        5
 44
0.0
173
     0
291
     0
 45
0.0
  0
VISUALSTYLE
  5
41
102
{ACAD_REACTORS
330
2A
102
}
102
{ACAD_XDICTIONARY
360
442
102
}
330
2A
100
AcDbVisualStyle
  2
Shaded with edges
 70
    26
 71
     2
 72
     2
 73
     1
 90
        2
 40
0.6
 41
30.0
 62
     5
 63
     7
421
 16777215
 74
     1
 91
       10
 64
     7
 65
   257
 75
     2
175
     1
 42
1.0
 92
        8
 66
   257
 43
1.0
 76
     1
 77
     6
 78
     2
 67
     7
 79
     3
170
     0
171
     0
290
     0
174
     0
 93
        5
 44
0.0
173
     0
291
     0
 45
0.0
  0
VISUALSTYLE
  5
3E
102
{ACAD_REACTORS
330
2A
102
}
102
{ACAD_XDICTIONARY
360
43C
102
}
330
2A
100
AcDbVisualStyle
  2
Shades of Gray
 70
    23
 71
     2
 72
     2
 73
     3
 90
        0
 40
0.6
 41
30.0
 62
     5
 63
     7
421
 16777215
 74
     2
 91
        2
 64
     7
 65
     7
 75
     1
175
     1
 42
40.0
 92
        8
 66
     7
 43
1.0
 76
     1
 77
     6
 78
     2
 67
     7
 79
     3
170
     0
171
     0
290
     0
174
     0
 93
        1
 44
0.0
173
     0
291
     0
 45
0.0
  0
VISUALSTYLE
  5
3F
102
{ACAD_REACTORS
330
2A
102
}
102
{ACAD_XDICTIONARY
360
43E
102
}
330
2A
100
AcDbVisualStyle
  2
Sketchy
 70
    24
 71
     1
 72
     2
 73
     2
 90
        0
 40
0.6
 41
30.0
 62
     5
 63
     7
421
 16777215
 74
     2
 91
        2
 64
     7
 65
     7
 75
     1
175
     1
 42
40.0
 92
       11
 66
     7
 43
1.0
 76
     1
 77
     6
 78
     2
 67
     7
 79
     6
170
     0
171
     0
290
     0
174
     0
 93
        1
 44
0.0
173
     0
291
     0
 45
0.0
  0
VISUALSTYLE
  5
37
102
{ACAD_REACTORS
330
2A
102
}
102
{ACAD_XDICTIONARY
360
42E
102
}
330
2A
100
AcDbVisualStyle
  2
Thicken
 70
    13
 71
     2
 72
     2
 73
     0
 90
        0
 40
0.6
 41
30.0
 62
     5
 63
     7
421
 16777215
 74
     1
 91
        4
 64
     7
 65
   257
 75
     1
175
     1
 42
1.0
 92
       12
 66
     7
 43
1.0
 76
     1
 77
     6
 78
     2
 67
     7
 79
     5
170
     0
171
     0
290
     0
174
     0
 93
        1
 44
0.0
173
     0
291
     1
 45
0.0
  0
VISUALSTYLE
  5
30
102
{ACAD_REACTORS
330
2A
102
}
102
{ACAD_XDICTIONARY
360
420
102
}
330
2A
100
AcDbVisualStyle
  2
Wireframe
 70
     5
 71
     0
 72
     2
 73
     0
 90
        0
 40
0.6
 41
30.0
 62
     5
 63
     7
421
 16777215
 74
     1
 91
        4
 64
     7
 65
   257
 75
     1
175
     1
 42
1.0
 92
        0
 66
   257
 43
1.0
 76
     1
 77
     6
 78
     2
 67
     7
 79
     3
170
     0
171
     0
290
     0
174
     0
 93
        1
 44
0.0
173
     0
291
     0
 45
0.0
  0
VISUALSTYLE
  5
40
102
{ACAD_REACTORS
330
2A
102
}
102
{ACAD_XDICTIONARY
360
440
102
}
330
2A
100
AcDbVisualStyle
  2
X-Ray
 70
    25
 71
     2
 72
     2
 73
     1
 90
        1
 40
0.5
 41
30.0
 62
     5
 63
     7
421
 16777215
 74
     1
 91
        0
 64
     7
 65
   257
 75
     1
175
     1
 42
1.0
 92
        8
 66
     7
 43
1.0
 76
     1
 77
     6
 78
     2
 67
     7
 79
     3
170
     0
171
     0
290
     0
174
     0
 93
       13
 44
0.0
173
     0
291
     0
 45
0.0
  0
DICTIONARYVAR
  5
414
102
{ACAD_REACTORS
330
413
102
}
330
413
100
DictionaryVariables
280
     0
  1
1:1
  0
DICTIONARYVAR
  5
44D
102
{ACAD_REACTORS
330
413
102
}
330
413
100
DictionaryVariables
280
     0
  1
Standard
  0
DICTIONARYVAR
  5
44C
102
{ACAD_REACTORS
330
413
102
}
330
413
100
DictionaryVariables
280
     0
  1
Standard
  0
DICTIONARYVAR
  5
415
102
{ACAD_REACTORS
330
413
102
}
330
413
100
DictionaryVariables
280
     0
  1
2
  0
DICTIONARY
  5
449
330
6C
100
AcDbDictionary
280
     1
281
     1
  3
ACAD_XREC_ROUNDTRIP
360
44A
  0
DICTIONARY
  5
446
330
6A
100
AcDbDictionary
280
     1
281
     1
  3
ACAD_ROUNDTRIP_2008_TABLESTYLE_CELLSTYLEMAP
360
447
  0
DICTIONARY
  5
41E
330
2F
100
AcDbDictionary
280
     1
281
     1
  3
ACAD_XREC_ROUNDTRIP
360
41F
  0
DICTIONARY
  5
424
330
32
100
AcDbDictionary
280
     1
281
     1
  3
ACAD_XREC_ROUNDTRIP
360
425
  0
DICTIONARY
  5
42C
330
36
100
AcDbDictionary
280
     1
281
     1
  3
ACAD_XREC_ROUNDTRIP
360
42D
  0
DICTIONARY
  5
434
330
3A
100
AcDbDictionary
280
     1
281
     1
  3
ACAD_XREC_ROUNDTRIP
360
435
  0
DICTIONARY
  5
428
330
34
100
AcDbDictionary
280
     1
281
     1
  3
ACAD_XREC_ROUNDTRIP
360
429
  0
DICTIONARY
  5
42A
330
35
100
AcDbDictionary
280
     1
281
     1
  3
ACAD_XREC_ROUNDTRIP
360
42B
  0
DICTIONARY
  5
43A
330
3D
100
AcDbDictionary
280
     1
281
     1
  3
ACAD_XREC_ROUNDTRIP
360
43B
  0
DICTIONARY
  5
432
330
39
100
AcDbDictionary
280
     1
281
     1
  3
ACAD_XREC_ROUNDTRIP
360
433
  0
DICTIONARY
  5
416
330
2B
100
AcDbDictionary
280
     1
281
     1
  3
ACAD_XREC_ROUNDTRIP
360
417
  0
DICTIONARY
  5
418
330
2C
100
AcDbDictionary
280
     1
281
     1
  3
ACAD_XREC_ROUNDTRIP
360
419
  0
DICTIONARY
  5
41A
330
2D
100
AcDbDictionary
280
     1
281
     1
  3
ACAD_XREC_ROUNDTRIP
360
41B
  0
DICTIONARY
  5
41C
330
2E
100
AcDbDictionary
280
     1
281
     1
  3
ACAD_XREC_ROUNDTRIP
360
41D
  0
DICTIONARY
  5
422
330
31
100
AcDbDictionary
280
     1
281
     1
  3
ACAD_XREC_ROUNDTRIP
360
423
  0
DICTIONARY
  5
436
330
3B
100
AcDbDictionary
280
     1
281
     1
  3
ACAD_XREC_ROUNDTRIP
360
437
  0
DICTIONARY
  5
430
330
38
100
AcDbDictionary
280
     1
281
     1
  3
ACAD_XREC_ROUNDTRIP
360
431
  0
DICTIONARY
  5
438
330
3C
100
AcDbDictionary
280
     1
281
     1
  3
ACAD_XREC_ROUNDTRIP
360
439
  0
DICTIONARY
  5
426
330
33
100
AcDbDictionary
280
     1
281
     1
  3
ACAD_XREC_ROUNDTRIP
360
427
  0
DICTIONARY
  5
444
330
42
100
AcDbDictionary
280
     1
281
     1
  3
ACAD_XREC_ROUNDTRIP
360
445
  0
DICTIONARY
  5
442
330
41
100
AcDbDictionary
280
     1
281
     1
  3
ACAD_XREC_ROUNDTRIP
360
443
  0
DICTIONARY
  5
43C
330
3E
100
AcDbDictionary
280
     1
281
     1
  3
ACAD_XREC_ROUNDTRIP
360
43D
  0
DICTIONARY
  5
43E
330
3F
100
AcDbDictionary
280
     1
281
     1
  3
ACAD_XREC_ROUNDTRIP
360
43F
  0
DICTIONARY
  5
42E
330
37
100
AcDbDictionary
280
     1
281
     1
  3
ACAD_XREC_ROUNDTRIP
360
42F
  0
DICTIONARY
  5
420
330
30
100
AcDbDictionary
280
     1
281
     1
  3
ACAD_XREC_ROUNDTRIP
360
421
  0
DICTIONARY
  5
440
330
40
100
AcDbDictionary
280
     1
281
     1
  3
ACAD_XREC_ROUNDTRIP
360
441
  0
XRECORD
  5
44A
102
{ACAD_REACTORS
330
449
102
}
330
449
100
AcDbXrecord
280
     1
102
ACAD_ROUNDTRIP_2010_MLEADER_STYLE
  0
CELLSTYLEMAP
  5
447
102
{ACAD_REACTORS
330
446
102
}
330
446
100
AcDbCellStyleMap
 90
        3
300
CELLSTYLE
  1
TABLEFORMAT_BEGIN
 90
        5
170
     1
 91
        0
 92
    32768
 62
   257
 93
        1
300
CONTENTFORMAT
  1
CONTENTFORMAT_BEGIN
 90
        0
 91
        0
 92
        4
 93
        0
300

 40
0.0
140
1.0
 94
        5
 62
     0
340
11
144
6.0
309
CONTENTFORMAT_END
171
     1
301
MARGIN
  1
CELLMARGIN_BEGIN
 40
1.5
 40
1.5
 40
1.5
 40
1.5
 40
1.5
 40
1.5
309
CELLMARGIN_END
 94
        6
 95
        1
302
GRIDFORMAT
  1
GRIDFORMAT_BEGIN
 90
        0
 91
        1
 62
     0
 92
       -2
340
14
 93
        0
 40
0.045
309
GRIDFORMAT_END
 95
        2
302
GRIDFORMAT
  1
GRIDFORMAT_BEGIN
 90
        0
 91
        1
 62
     0
 92
       -2
340
14
 93
        0
 40
0.045
309
GRIDFORMAT_END
 95
        4
302
GRIDFORMAT
  1
GRIDFORMAT_BEGIN
 90
        0
 91
        1
 62
     0
 92
       -2
340
14
 93
        0
 40
0.045
309
GRIDFORMAT_END
 95
        8
302
GRIDFORMAT
  1
GRIDFORMAT_BEGIN
 90
        0
 91
        1
 62
     0
 92
       -2
340
14
 93
        0
 40
0.045
309
GRIDFORMAT_END
 95
       16
302
GRIDFORMAT
  1
GRIDFORMAT_BEGIN
 90
        0
 91
        1
 62
     0
 92
       -2
340
14
 93
        0
 40
0.045
309
GRIDFORMAT_END
 95
       32
302
GRIDFORMAT
  1
GRIDFORMAT_BEGIN
 90
        0
 91
        1
 62
     0
 92
       -2
340
14
 93
        0
 40
0.045
309
GRIDFORMAT_END
309
TABLEFORMAT_END
  1
CELLSTYLE_BEGIN
 90
        1
 91
        1
300
_TITLE
309
CELLSTYLE_END
300
CELLSTYLE
  1
TABLEFORMAT_BEGIN
 90
        5
170
     1
 91
        0
 92
        0
 62
   257
 93
        1
300
CONTENTFORMAT
  1
CONTENTFORMAT_BEGIN
 90
        0
 91
        0
 92
        4
 93
        0
300

 40
0.0
140
1.0
 94
        5
 62
     0
340
11
144
4.5
309
CONTENTFORMAT_END
171
     1
301
MARGIN
  1
CELLMARGIN_BEGIN
 40
1.5
 40
1.5
 40
1.5
 40
1.5
 40
1.5
 40
1.5
309
CELLMARGIN_END
 94
        6
 95
        1
302
GRIDFORMAT
  1
GRIDFORMAT_BEGIN
 90
        0
 91
        1
 62
     0
 92
       -2
340
14
 93
        0
 40
0.045
309
GRIDFORMAT_END
 95
        2
302
GRIDFORMAT
  1
GRIDFORMAT_BEGIN
 90
        0
 91
        1
 62
     0
 92
       -2
340
14
 93
        0
 40
0.045
309
GRIDFORMAT_END
 95
        4
302
GRIDFORMAT
  1
GRIDFORMAT_BEGIN
 90
        0
 91
        1
 62
     0
 92
       -2
340
14
 93
        0
 40
0.045
309
GRIDFORMAT_END
 95
        8
302
GRIDFORMAT
  1
GRIDFORMAT_BEGIN
 90
        0
 91
        1
 62
     0
 92
       -2
340
14
 93
        0
 40
0.045
309
GRIDFORMAT_END
 95
       16
302
GRIDFORMAT
  1
GRIDFORMAT_BEGIN
 90
        0
 91
        1
 62
     0
 92
       -2
340
14
 93
        0
 40
0.045
309
GRIDFORMAT_END
 95
       32
302
GRIDFORMAT
  1
GRIDFORMAT_BEGIN
 90
        0
 91
        1
 62
     0
 92
       -2
340
14
 93
        0
 40
0.045
309
GRIDFORMAT_END
309
TABLEFORMAT_END
  1
CELLSTYLE_BEGIN
 90
        2
 91
        1
300
_HEADER
309
CELLSTYLE_END
300
CELLSTYLE
  1
TABLEFORMAT_BEGIN
 90
        5
170
     1
 91
        0
 92
        0
 62
   257
 93
        1
300
CONTENTFORMAT
  1
CONTENTFORMAT_BEGIN
 90
        0
 91
        0
 92
        4
 93
        0
300

 40
0.0
140
1.0
 94
        2
 62
     0
340
11
144
4.5
309
CONTENTFORMAT_END
171
     1
301
MARGIN
  1
CELLMARGIN_BEGIN
 40
1.5
 40
1.5
 40
1.5
 40
1.5
 40
1.5
 40
1.5
309
CELLMARGIN_END
 94
        6
 95
        1
302
GRIDFORMAT
  1
GRIDFORMAT_BEGIN
 90
        0
 91
        1
 62
     0
 92
       -2
340
14
 93
        0
 40
0.045
309
GRIDFORMAT_END
 95
        2
302
GRIDFORMAT
  1
GRIDFORMAT_BEGIN
 90
        0
 91
        1
 62
     0
 92
       -2
340
14
 93
        0
 40
0.045
309
GRIDFORMAT_END
 95
        4
302
GRIDFORMAT
  1
GRIDFORMAT_BEGIN
 90
        0
 91
        1
 62
     0
 92
       -2
340
14
 93
        0
 40
0.045
309
GRIDFORMAT_END
 95
        8
302
GRIDFORMAT
  1
GRIDFORMAT_BEGIN
 90
        0
 91
        1
 62
     0
 92
       -2
340
14
 93
        0
 40
0.045
309
GRIDFORMAT_END
 95
       16
302
GRIDFORMAT
  1
GRIDFORMAT_BEGIN
 90
        0
 91
        1
 62
     0
 92
       -2
340
14
 93
        0
 40
0.045
309
GRIDFORMAT_END
 95
       32
302
GRIDFORMAT
  1
GRIDFORMAT_BEGIN
 90
        0
 91
        1
 62
     0
 92
       -2
340
14
 93
        0
 40
0.045
309
GRIDFORMAT_END
309
TABLEFORMAT_END
  1
CELLSTYLE_BEGIN
 90
        3
 91
        2
300
_DATA
309
CELLSTYLE_END
  0
XRECORD
  5
41F
102
{ACAD_REACTORS
330
41E
102
}
330
41E
100
AcDbXrecord
280
     1
102
RTVSPropertyOp0
 70
     1
102
RTVSPropertyOp1
 70
     1
102
RTVSPropertyOp2
 70
     1
102
RTVSPropertyOp3
 70
     1
102
RTVSPropertyOp4
 70
     1
102
RTVSPropertyOp5
 70
     1
102
RTVSPropertyOp6
 70
     1
102
RTVSPropertyOp7
 70
     1
102
RTVSPropertyOp8
 70
     1
102
RTVSPropertyOp9
 70
     1
102
RTVSPropertyOp10
 70
     1
102
RTVSPropertyOp11
 70
     1
102
RTVSPropertyOp12
 70
     1
102
RTVSPropertyOp13
 70
     1
102
RTVSPropertyOp14
 70
     1
102
RTVSPropertyOp15
 70
     1
102
RTVSPropertyOp16
 70
     1
102
RTVSPropertyOp17
 70
     1
102
RTVSPropertyOp18
 70
     1
102
RTVSPropertyOp19
 70
     1
102
RTVSPropertyOp20
 70
     1
102
RTVSPropertyOp21
 70
     1
102
RTVSPropertyOp22
 70
     1
102
RTVSPropertyOp23
 70
     1
102
RTVSPropertyOp24
 70
     1
102
RTVSPropertyOp25
 70
     1
102
RTVSPropertyOp26
 70
     1
102
RTVSPropertyOp27
 70
     1
102
RTVSPropertyOp28
 70
     1
102
RTVSPropertyOp29
 70
     1
102
RTVSPropertyOp30
 70
     1
102
RTVSPropertyOp31
 70
     1
102
RTVSPropertyOp32
 70
     1
102
RTVSPropertyOp33
 70
     1
102
RTVSPropertyOp34
 70
     1
102
RTVSPropertyOp35
 70
     1
102
RTVSPropertyOp36
 70
     1
102
RTVSPropertyOp37
 70
     1
102
RTVSPropertyOp38
 70
     1
102
RTVSPropertyOp39
 70
     1
102
RTVSPropertyOp40
 70
     1
102
RTVSPropertyOp41
 70
     1
102
RTVSPropertyOp42
 70
     1
102
RTVSPropertyOp43
 70
     1
102
RTVSPropertyOp44
 70
     1
102
RTVSPropertyOp45
 70
     1
102
RTVSPropertyOp46
 70
     1
102
RTVSPropertyOp47
 70
     1
102
RTVSPropertyOp48
 70
     1
102
RTVSPropertyOp49
 70
     1
102
RTVSPropertyOp50
 70
     1
102
RTVSPropertyOp51
 70
     0
102
RTVSPropertyOp52
 70
     0
102
RTVSPropertyOp53
 70
     1
102
RTVSPropertyOp54
 70
     1
102
RTVSPropertyOp55
 70
     1
102
RTVSPropertyOp56
 70
     1
102
RTVSPropertyOp57
 70
     1
102
RTVSPost2010Prop28
280
     1
102
RTVSPost2010PropOp28
 70
     1
102
RTVSPost2010Prop29
280
     1
102
RTVSPost2010PropOp29
 70
     1
102
RTVSPost2010Prop30
280
     0
102
RTVSPost2010PropOp30
 70
     1
102
RTVSPost2010Prop31
280
     0
102
RTVSPost2010PropOp31
 70
     1
102
RTVSPost2010Prop32
280
     0
102
RTVSPost2010PropOp32
 70
     1
102
RTVSPost2010Prop33
280
     0
102
RTVSPost2010PropOp33
 70
     1
102
RTVSPost2010Prop34
280
     0
102
RTVSPost2010PropOp34
 70
     1
102
RTVSPost2010Prop35
280
     0
102
RTVSPost2010PropOp35
 70
     1
102
RTVSPost2010Prop36
280
     0
102
RTVSPost2010PropOp36
 70
     1
102
RTVSPost2010Prop37
 90
       50
102
RTVSPost2010PropOp37
 70
     1
102
RTVSPost2010Prop38
140
0.0
102
RTVSPost2010PropOp38
 70
     1
102
RTVSPost2010Prop39
140
1.0
102
RTVSPost2010PropOp39
 70
     1
102
RTVSPost2010Prop40
 90
        0
102
RTVSPost2010PropOp40
 70
     1
102
RTVSPost2010Prop41ColorIndex
 90
       18
102
RTVSPost2010Prop41ColorRGB
 90
        0
102
RTVSPost2010PropOp41
 70
     1
102
RTVSPost2010Prop42
 90
       50
102
RTVSPost2010PropOp42
 70
     1
102
RTVSPost2010Prop43
 90
        3
102
RTVSPost2010PropOp43
 70
     1
102
RTVSPost2010Prop44ColorIndex
 90
        5
102
RTVSPost2010Prop44ColorRGB
 90
      255
102
RTVSPost2010PropOp44
 70
     1
102
RTVSPost2010Prop45
280
     0
102
RTVSPost2010PropOp45
 70
     1
102
RTVSPost2010Prop46
 90
       50
102
RTVSPost2010PropOp46
 70
     1
102
RTVSPost2010Prop47
 90
       50
102
RTVSPost2010PropOp47
 70
     1
102
RTVSPost2010Prop48
 90
       50
102
RTVSPost2010PropOp48
 70
     1
102
RTVSPost2010Prop49
280
     0
102
RTVSPost2010PropOp49
 70
     1
102
RTVSPost2010Prop50
 90
       50
102
RTVSPost2010PropOp50
 70
     1
102
RTVSPost2010Prop51ColorIndex
 90
      256
102
RTVSPost2010Prop51ColorRGB
 90
-16777216
102
RTVSPost2010PropOp51
 70
     0
102
RTVSPost2010Prop52
140
1.0
102
RTVSPost2010PropOp52
 70
     0
102
RTVSPost2010Prop53
 90
        2
102
RTVSPost2010PropOp53
 70
     1
102
RTVSPost2010Prop54
  1
strokes_ogs.tif
102
RTVSPost2010PropOp54
 70
     1
102
RTVSPost2010Prop55
280
     0
102
RTVSPost2010PropOp55
 70
     1
102
RTVSPost2010Prop56
140
1.0
102
RTVSPost2010PropOp56
 70
     1
102
RTVSPost2010Prop57
140
1.0
102
RTVSPost2010PropOp57
 70
     1
  0
XRECORD
  5
425
102
{ACAD_REACTORS
330
424
102
}
330
424
100
AcDbXrecord
280
     1
102
RTVSPropertyOp0
 70
     1
102
RTVSPropertyOp1
 70
     1
102
RTVSPropertyOp2
 70
     1
102
RTVSPropertyOp3
 70
     1
102
RTVSPropertyOp4
 70
     1
102
RTVSPropertyOp5
 70
     1
102
RTVSPropertyOp6
 70
     1
102
RTVSPropertyOp7
 70
     1
102
RTVSPropertyOp8
 70
     1
102
RTVSPropertyOp9
 70
     1
102
RTVSPropertyOp10
 70
     1
102
RTVSPropertyOp11
 70
     1
102
RTVSPropertyOp12
 70
     1
102
RTVSPropertyOp13
 70
     1
102
RTVSPropertyOp14
 70
     1
102
RTVSPropertyOp15
 70
     1
102
RTVSPropertyOp16
 70
     1
102
RTVSPropertyOp17
 70
     1
102
RTVSPropertyOp18
 70
     1
102
RTVSPropertyOp19
 70
     1
102
RTVSPropertyOp20
 70
     1
102
RTVSPropertyOp21
 70
     1
102
RTVSPropertyOp22
 70
     1
102
RTVSPropertyOp23
 70
     1
102
RTVSPropertyOp24
 70
     1
102
RTVSPropertyOp25
 70
     1
102
RTVSPropertyOp26
 70
     1
102
RTVSPropertyOp27
 70
     1
102
RTVSPropertyOp28
 70
     1
102
RTVSPropertyOp29
 70
     1
102
RTVSPropertyOp30
 70
     1
102
RTVSPropertyOp31
 70
     1
102
RTVSPropertyOp32
 70
     1
102
RTVSPropertyOp33
 70
     1
102
RTVSPropertyOp34
 70
     1
102
RTVSPropertyOp35
 70
     1
102
RTVSPropertyOp36
 70
     1
102
RTVSPropertyOp37
 70
     1
102
RTVSPropertyOp38
 70
     1
102
RTVSPropertyOp39
 70
     1
102
RTVSPropertyOp40
 70
     1
102
RTVSPropertyOp41
 70
     1
102
RTVSPropertyOp42
 70
     1
102
RTVSPropertyOp43
 70
     1
102
RTVSPropertyOp44
 70
     1
102
RTVSPropertyOp45
 70
     1
102
RTVSPropertyOp46
 70
     1
102
RTVSPropertyOp47
 70
     1
102
RTVSPropertyOp48
 70
     1
102
RTVSPropertyOp49
 70
     1
102
RTVSPropertyOp50
 70
     1
102
RTVSPropertyOp51
 70
     0
102
RTVSPropertyOp52
 70
     0
102
RTVSPropertyOp53
 70
     1
102
RTVSPropertyOp54
 70
     1
102
RTVSPropertyOp55
 70
     1
102
RTVSPropertyOp56
 70
     1
102
RTVSPropertyOp57
 70
     1
102
RTVSPost2010Prop28
280
     0
102
RTVSPost2010PropOp28
 70
     1
102
RTVSPost2010Prop29
280
     1
102
RTVSPost2010PropOp29
 70
     1
102
RTVSPost2010Prop30
280
     1
102
RTVSPost2010PropOp30
 70
     1
102
RTVSPost2010Prop31
280
     0
102
RTVSPost2010PropOp31
 70
     1
102
RTVSPost2010Prop32
280
     0
102
RTVSPost2010PropOp32
 70
     1
102
RTVSPost2010Prop33
280
     0
102
RTVSPost2010PropOp33
 70
     1
102
RTVSPost2010Prop34
280
     0
102
RTVSPost2010PropOp34
 70
     1
102
RTVSPost2010Prop35
280
     0
102
RTVSPost2010PropOp35
 70
     1
102
RTVSPost2010Prop36
280
     0
102
RTVSPost2010PropOp36
 70
     1
102
RTVSPost2010Prop37
 90
       50
102
RTVSPost2010PropOp37
 70
     1
102
RTVSPost2010Prop38
140
0.0
102
RTVSPost2010PropOp38
 70
     1
102
RTVSPost2010Prop39
140
1.0
102
RTVSPost2010PropOp39
 70
     1
102
RTVSPost2010Prop40
 90
        0
102
RTVSPost2010PropOp40
 70
     1
102
RTVSPost2010Prop41ColorIndex
 90
       18
102
RTVSPost2010Prop41ColorRGB
 90
        0
102
RTVSPost2010PropOp41
 70
     1
102
RTVSPost2010Prop42
 90
       50
102
RTVSPost2010PropOp42
 70
     1
102
RTVSPost2010Prop43
 90
        3
102
RTVSPost2010PropOp43
 70
     1
102
RTVSPost2010Prop44ColorIndex
 90
        5
102
RTVSPost2010Prop44ColorRGB
 90
      255
102
RTVSPost2010PropOp44
 70
     1
102
RTVSPost2010Prop45
280
     0
102
RTVSPost2010PropOp45
 70
     1
102
RTVSPost2010Prop46
 90
       50
102
RTVSPost2010PropOp46
 70
     1
102
RTVSPost2010Prop47
 90
       50
102
RTVSPost2010PropOp47
 70
     1
102
RTVSPost2010Prop48
 90
       50
102
RTVSPost2010PropOp48
 70
     1
102
RTVSPost2010Prop49
280
     0
102
RTVSPost2010PropOp49
 70
     1
102
RTVSPost2010Prop50
 90
       50
102
RTVSPost2010PropOp50
 70
     1
102
RTVSPost2010Prop51ColorIndex
 90
      256
102
RTVSPost2010Prop51ColorRGB
 90
-16777216
102
RTVSPost2010PropOp51
 70
     0
102
RTVSPost2010Prop52
140
1.0
102
RTVSPost2010PropOp52
 70
     0
102
RTVSPost2010Prop53
 90
        2
102
RTVSPost2010PropOp53
 70
     1
102
RTVSPost2010Prop54
  1
strokes_ogs.tif
102
RTVSPost2010PropOp54
 70
     1
102
RTVSPost2010Prop55
280
     0
102
RTVSPost2010PropOp55
 70
     1
102
RTVSPost2010Prop56
140
1.0
102
RTVSPost2010PropOp56
 70
     1
102
RTVSPost2010Prop57
140
1.0
102
RTVSPost2010PropOp57
 70
     1
  0
XRECORD
  5
42D
102
{ACAD_REACTORS
330
42C
102
}
330
42C
100
AcDbXrecord
280
     1
102
RTVSPropertyOp0
 70
     1
102
RTVSPropertyOp1
 70
     1
102
RTVSPropertyOp2
 70
     1
102
RTVSPropertyOp3
 70
     1
102
RTVSPropertyOp4
 70
     1
102
RTVSPropertyOp5
 70
     1
102
RTVSPropertyOp6
 70
     1
102
RTVSPropertyOp7
 70
     1
102
RTVSPropertyOp8
 70
     1
102
RTVSPropertyOp9
 70
     1
102
RTVSPropertyOp10
 70
     1
102
RTVSPropertyOp11
 70
     1
102
RTVSPropertyOp12
 70
     1
102
RTVSPropertyOp13
 70
     1
102
RTVSPropertyOp14
 70
     1
102
RTVSPropertyOp15
 70
     1
102
RTVSPropertyOp16
 70
     1
102
RTVSPropertyOp17
 70
     1
102
RTVSPropertyOp18
 70
     1
102
RTVSPropertyOp19
 70
     1
102
RTVSPropertyOp20
 70
     1
102
RTVSPropertyOp21
 70
     1
102
RTVSPropertyOp22
 70
     1
102
RTVSPropertyOp23
 70
     1
102
RTVSPropertyOp24
 70
     1
102
RTVSPropertyOp25
 70
     1
102
RTVSPropertyOp26
 70
     1
102
RTVSPropertyOp27
 70
     1
102
RTVSPropertyOp28
 70
     1
102
RTVSPropertyOp29
 70
     1
102
RTVSPropertyOp30
 70
     1
102
RTVSPropertyOp31
 70
     1
102
RTVSPropertyOp32
 70
     1
102
RTVSPropertyOp33
 70
     1
102
RTVSPropertyOp34
 70
     1
102
RTVSPropertyOp35
 70
     1
102
RTVSPropertyOp36
 70
     1
102
RTVSPropertyOp37
 70
     1
102
RTVSPropertyOp38
 70
     1
102
RTVSPropertyOp39
 70
     1
102
RTVSPropertyOp40
 70
     1
102
RTVSPropertyOp41
 70
     1
102
RTVSPropertyOp42
 70
     1
102
RTVSPropertyOp43
 70
     1
102
RTVSPropertyOp44
 70
     1
102
RTVSPropertyOp45
 70
     1
102
RTVSPropertyOp46
 70
     1
102
RTVSPropertyOp47
 70
     1
102
RTVSPropertyOp48
 70
     1
102
RTVSPropertyOp49
 70
     1
102
RTVSPropertyOp50
 70
     1
102
RTVSPropertyOp51
 70
     0
102
RTVSPropertyOp52
 70
     0
102
RTVSPropertyOp53
 70
     1
102
RTVSPropertyOp54
 70
     1
102
RTVSPropertyOp55
 70
     1
102
RTVSPropertyOp56
 70
     1
102
RTVSPropertyOp57
 70
     1
102
RTVSPost2010Prop28
280
     0
102
RTVSPost2010PropOp28
 70
     1
102
RTVSPost2010Prop29
280
     1
102
RTVSPost2010PropOp29
 70
     1
102
RTVSPost2010Prop30
280
     1
102
RTVSPost2010PropOp30
 70
     1
102
RTVSPost2010Prop31
280
     0
102
RTVSPost2010PropOp31
 70
     1
102
RTVSPost2010Prop32
280
     0
102
RTVSPost2010PropOp32
 70
     1
102
RTVSPost2010Prop33
280
     0
102
RTVSPost2010PropOp33
 70
     1
102
RTVSPost2010Prop34
280
     0
102
RTVSPost2010PropOp34
 70
     1
102
RTVSPost2010Prop35
280
     0
102
RTVSPost2010PropOp35
 70
     1
102
RTVSPost2010Prop36
280
     0
102
RTVSPost2010PropOp36
 70
     1
102
RTVSPost2010Prop37
 90
       50
102
RTVSPost2010PropOp37
 70
     1
102
RTVSPost2010Prop38
140
0.0
102
RTVSPost2010PropOp38
 70
     1
102
RTVSPost2010Prop39
140
1.0
102
RTVSPost2010PropOp39
 70
     1
102
RTVSPost2010Prop40
 90
        0
102
RTVSPost2010PropOp40
 70
     1
102
RTVSPost2010Prop41ColorIndex
 90
       18
102
RTVSPost2010Prop41ColorRGB
 90
        0
102
RTVSPost2010PropOp41
 70
     1
102
RTVSPost2010Prop42
 90
       50
102
RTVSPost2010PropOp42
 70
     1
102
RTVSPost2010Prop43
 90
        3
102
RTVSPost2010PropOp43
 70
     1
102
RTVSPost2010Prop44ColorIndex
 90
        5
102
RTVSPost2010Prop44ColorRGB
 90
      255
102
RTVSPost2010PropOp44
 70
     1
102
RTVSPost2010Prop45
280
     0
102
RTVSPost2010PropOp45
 70
     1
102
RTVSPost2010Prop46
 90
       50
102
RTVSPost2010PropOp46
 70
     1
102
RTVSPost2010Prop47
 90
       50
102
RTVSPost2010PropOp47
 70
     1
102
RTVSPost2010Prop48
 90
       50
102
RTVSPost2010PropOp48
 70
     1
102
RTVSPost2010Prop49
280
     0
102
RTVSPost2010PropOp49
 70
     1
102
RTVSPost2010Prop50
 90
       50
102
RTVSPost2010PropOp50
 70
     1
102
RTVSPost2010Prop51ColorIndex
 90
      256
102
RTVSPost2010Prop51ColorRGB
 90
-16777216
102
RTVSPost2010PropOp51
 70
     0
102
RTVSPost2010Prop52
140
1.0
102
RTVSPost2010PropOp52
 70
     0
102
RTVSPost2010Prop53
 90
        2
102
RTVSPost2010PropOp53
 70
     1
102
RTVSPost2010Prop54
  1
strokes_ogs.tif
102
RTVSPost2010PropOp54
 70
     1
102
RTVSPost2010Prop55
280
     0
102
RTVSPost2010PropOp55
 70
     1
102
RTVSPost2010Prop56
140
1.0
102
RTVSPost2010PropOp56
 70
     1
102
RTVSPost2010Prop57
140
1.0
102
RTVSPost2010PropOp57
 70
     1
  0
XRECORD
  5
435
102
{ACAD_REACTORS
330
434
102
}
330
434
100
AcDbXrecord
280
     1
102
RTVSPropertyOp0
 70
     1
102
RTVSPropertyOp1
 70
     1
102
RTVSPropertyOp2
 70
     1
102
RTVSPropertyOp3
 70
     1
102
RTVSPropertyOp4
 70
     1
102
RTVSPropertyOp5
 70
     1
102
RTVSPropertyOp6
 70
     1
102
RTVSPropertyOp7
 70
     1
102
RTVSPropertyOp8
 70
     1
102
RTVSPropertyOp9
 70
     1
102
RTVSPropertyOp10
 70
     1
102
RTVSPropertyOp11
 70
     1
102
RTVSPropertyOp12
 70
     1
102
RTVSPropertyOp13
 70
     1
102
RTVSPropertyOp14
 70
     1
102
RTVSPropertyOp15
 70
     1
102
RTVSPropertyOp16
 70
     1
102
RTVSPropertyOp17
 70
     1
102
RTVSPropertyOp18
 70
     1
102
RTVSPropertyOp19
 70
     1
102
RTVSPropertyOp20
 70
     1
102
RTVSPropertyOp21
 70
     1
102
RTVSPropertyOp22
 70
     1
102
RTVSPropertyOp23
 70
     1
102
RTVSPropertyOp24
 70
     1
102
RTVSPropertyOp25
 70
     1
102
RTVSPropertyOp26
 70
     1
102
RTVSPropertyOp27
 70
     1
102
RTVSPropertyOp28
 70
     1
102
RTVSPropertyOp29
 70
     1
102
RTVSPropertyOp30
 70
     1
102
RTVSPropertyOp31
 70
     1
102
RTVSPropertyOp32
 70
     1
102
RTVSPropertyOp33
 70
     1
102
RTVSPropertyOp34
 70
     1
102
RTVSPropertyOp35
 70
     1
102
RTVSPropertyOp36
 70
     1
102
RTVSPropertyOp37
 70
     1
102
RTVSPropertyOp38
 70
     1
102
RTVSPropertyOp39
 70
     1
102
RTVSPropertyOp40
 70
     1
102
RTVSPropertyOp41
 70
     1
102
RTVSPropertyOp42
 70
     1
102
RTVSPropertyOp43
 70
     1
102
RTVSPropertyOp44
 70
     1
102
RTVSPropertyOp45
 70
     1
102
RTVSPropertyOp46
 70
     1
102
RTVSPropertyOp47
 70
     1
102
RTVSPropertyOp48
 70
     1
102
RTVSPropertyOp49
 70
     1
102
RTVSPropertyOp50
 70
     1
102
RTVSPropertyOp51
 70
     0
102
RTVSPropertyOp52
 70
     0
102
RTVSPropertyOp53
 70
     1
102
RTVSPropertyOp54
 70
     1
102
RTVSPropertyOp55
 70
     1
102
RTVSPropertyOp56
 70
     1
102
RTVSPropertyOp57
 70
     1
102
RTVSPost2010Prop28
280
     0
102
RTVSPost2010PropOp28
 70
     1
102
RTVSPost2010Prop29
280
     1
102
RTVSPost2010PropOp29
 70
     1
102
RTVSPost2010Prop30
280
     1
102
RTVSPost2010PropOp30
 70
     1
102
RTVSPost2010Prop31
280
     0
102
RTVSPost2010PropOp31
 70
     1
102
RTVSPost2010Prop32
280
     0
102
RTVSPost2010PropOp32
 70
     1
102
RTVSPost2010Prop33
280
     0
102
RTVSPost2010PropOp33
 70
     1
102
RTVSPost2010Prop34
280
     0
102
RTVSPost2010PropOp34
 70
     1
102
RTVSPost2010Prop35
280
     0
102
RTVSPost2010PropOp35
 70
     1
102
RTVSPost2010Prop36
280
     0
102
RTVSPost2010PropOp36
 70
     1
102
RTVSPost2010Prop37
 90
       50
102
RTVSPost2010PropOp37
 70
     1
102
RTVSPost2010Prop38
140
0.0
102
RTVSPost2010PropOp38
 70
     1
102
RTVSPost2010Prop39
140
1.0
102
RTVSPost2010PropOp39
 70
     1
102
RTVSPost2010Prop40
 90
        0
102
RTVSPost2010PropOp40
 70
     1
102
RTVSPost2010Prop41ColorIndex
 90
       18
102
RTVSPost2010Prop41ColorRGB
 90
        0
102
RTVSPost2010PropOp41
 70
     1
102
RTVSPost2010Prop42
 90
       50
102
RTVSPost2010PropOp42
 70
     1
102
RTVSPost2010Prop43
 90
        3
102
RTVSPost2010PropOp43
 70
     1
102
RTVSPost2010Prop44ColorIndex
 90
        5
102
RTVSPost2010Prop44ColorRGB
 90
      255
102
RTVSPost2010PropOp44
 70
     1
102
RTVSPost2010Prop45
280
     0
102
RTVSPost2010PropOp45
 70
     1
102
RTVSPost2010Prop46
 90
       50
102
RTVSPost2010PropOp46
 70
     1
102
RTVSPost2010Prop47
 90
       50
102
RTVSPost2010PropOp47
 70
     1
102
RTVSPost2010Prop48
 90
       50
102
RTVSPost2010PropOp48
 70
     1
102
RTVSPost2010Prop49
280
     0
102
RTVSPost2010PropOp49
 70
     1
102
RTVSPost2010Prop50
 90
       50
102
RTVSPost2010PropOp50
 70
     1
102
RTVSPost2010Prop51ColorIndex
 90
      256
102
RTVSPost2010Prop51ColorRGB
 90
-16777216
102
RTVSPost2010PropOp51
 70
     0
102
RTVSPost2010Prop52
140
1.0
102
RTVSPost2010PropOp52
 70
     0
102
RTVSPost2010Prop53
 90
        2
102
RTVSPost2010PropOp53
 70
     1
102
RTVSPost2010Prop54
  1
strokes_ogs.tif
102
RTVSPost2010PropOp54
 70
     1
102
RTVSPost2010Prop55
280
     0
102
RTVSPost2010PropOp55
 70
     1
102
RTVSPost2010Prop56
140
1.0
102
RTVSPost2010PropOp56
 70
     1
102
RTVSPost2010Prop57
140
1.0
102
RTVSPost2010PropOp57
 70
     1
  0
XRECORD
  5
429
102
{ACAD_REACTORS
330
428
102
}
330
428
100
AcDbXrecord
280
     1
102
RTVSPropertyOp0
 70
     1
102
RTVSPropertyOp1
 70
     1
102
RTVSPropertyOp2
 70
     1
102
RTVSPropertyOp3
 70
     1
102
RTVSPropertyOp4
 70
     1
102
RTVSPropertyOp5
 70
     1
102
RTVSPropertyOp6
 70
     1
102
RTVSPropertyOp7
 70
     1
102
RTVSPropertyOp8
 70
     1
102
RTVSPropertyOp9
 70
     1
102
RTVSPropertyOp10
 70
     1
102
RTVSPropertyOp11
 70
     1
102
RTVSPropertyOp12
 70
     1
102
RTVSPropertyOp13
 70
     1
102
RTVSPropertyOp14
 70
     1
102
RTVSPropertyOp15
 70
     1
102
RTVSPropertyOp16
 70
     1
102
RTVSPropertyOp17
 70
     1
102
RTVSPropertyOp18
 70
     1
102
RTVSPropertyOp19
 70
     1
102
RTVSPropertyOp20
 70
     1
102
RTVSPropertyOp21
 70
     1
102
RTVSPropertyOp22
 70
     1
102
RTVSPropertyOp23
 70
     1
102
RTVSPropertyOp24
 70
     1
102
RTVSPropertyOp25
 70
     1
102
RTVSPropertyOp26
 70
     1
102
RTVSPropertyOp27
 70
     1
102
RTVSPropertyOp28
 70
     1
102
RTVSPropertyOp29
 70
     1
102
RTVSPropertyOp30
 70
     1
102
RTVSPropertyOp31
 70
     1
102
RTVSPropertyOp32
 70
     1
102
RTVSPropertyOp33
 70
     1
102
RTVSPropertyOp34
 70
     1
102
RTVSPropertyOp35
 70
     1
102
RTVSPropertyOp36
 70
     1
102
RTVSPropertyOp37
 70
     1
102
RTVSPropertyOp38
 70
     1
102
RTVSPropertyOp39
 70
     1
102
RTVSPropertyOp40
 70
     1
102
RTVSPropertyOp41
 70
     1
102
RTVSPropertyOp42
 70
     1
102
RTVSPropertyOp43
 70
     1
102
RTVSPropertyOp44
 70
     1
102
RTVSPropertyOp45
 70
     1
102
RTVSPropertyOp46
 70
     1
102
RTVSPropertyOp47
 70
     1
102
RTVSPropertyOp48
 70
     1
102
RTVSPropertyOp49
 70
     1
102
RTVSPropertyOp50
 70
     1
102
RTVSPropertyOp51
 70
     0
102
RTVSPropertyOp52
 70
     0
102
RTVSPropertyOp53
 70
     1
102
RTVSPropertyOp54
 70
     1
102
RTVSPropertyOp55
 70
     1
102
RTVSPropertyOp56
 70
     1
102
RTVSPropertyOp57
 70
     1
102
RTVSPost2010Prop28
280
     0
102
RTVSPost2010PropOp28
 70
     1
102
RTVSPost2010Prop29
280
     1
102
RTVSPost2010PropOp29
 70
     1
102
RTVSPost2010Prop30
280
     1
102
RTVSPost2010PropOp30
 70
     1
102
RTVSPost2010Prop31
280
     0
102
RTVSPost2010PropOp31
 70
     1
102
RTVSPost2010Prop32
280
     0
102
RTVSPost2010PropOp32
 70
     1
102
RTVSPost2010Prop33
280
     0
102
RTVSPost2010PropOp33
 70
     1
102
RTVSPost2010Prop34
280
     0
102
RTVSPost2010PropOp34
 70
     1
102
RTVSPost2010Prop35
280
     0
102
RTVSPost2010PropOp35
 70
     1
102
RTVSPost2010Prop36
280
     0
102
RTVSPost2010PropOp36
 70
     1
102
RTVSPost2010Prop37
 90
       50
102
RTVSPost2010PropOp37
 70
     1
102
RTVSPost2010Prop38
140
0.0
102
RTVSPost2010PropOp38
 70
     1
102
RTVSPost2010Prop39
140
1.0
102
RTVSPost2010PropOp39
 70
     1
102
RTVSPost2010Prop40
 90
        0
102
RTVSPost2010PropOp40
 70
     1
102
RTVSPost2010Prop41ColorIndex
 90
       18
102
RTVSPost2010Prop41ColorRGB
 90
        0
102
RTVSPost2010PropOp41
 70
     1
102
RTVSPost2010Prop42
 90
       50
102
RTVSPost2010PropOp42
 70
     1
102
RTVSPost2010Prop43
 90
        3
102
RTVSPost2010PropOp43
 70
     1
102
RTVSPost2010Prop44ColorIndex
 90
        5
102
RTVSPost2010Prop44ColorRGB
 90
      255
102
RTVSPost2010PropOp44
 70
     1
102
RTVSPost2010Prop45
280
     0
102
RTVSPost2010PropOp45
 70
     1
102
RTVSPost2010Prop46
 90
       50
102
RTVSPost2010PropOp46
 70
     1
102
RTVSPost2010Prop47
 90
       50
102
RTVSPost2010PropOp47
 70
     1
102
RTVSPost2010Prop48
 90
       50
102
RTVSPost2010PropOp48
 70
     1
102
RTVSPost2010Prop49
280
     0
102
RTVSPost2010PropOp49
 70
     1
102
RTVSPost2010Prop50
 90
       50
102
RTVSPost2010PropOp50
 70
     1
102
RTVSPost2010Prop51ColorIndex
 90
      256
102
RTVSPost2010Prop51ColorRGB
 90
-16777216
102
RTVSPost2010PropOp51
 70
     0
102
RTVSPost2010Prop52
140
1.0
102
RTVSPost2010PropOp52
 70
     0
102
RTVSPost2010Prop53
 90
        2
102
RTVSPost2010PropOp53
 70
     1
102
RTVSPost2010Prop54
  1
strokes_ogs.tif
102
RTVSPost2010PropOp54
 70
     1
102
RTVSPost2010Prop55
280
     0
102
RTVSPost2010PropOp55
 70
     1
102
RTVSPost2010Prop56
140
1.0
102
RTVSPost2010PropOp56
 70
     1
102
RTVSPost2010Prop57
140
1.0
102
RTVSPost2010PropOp57
 70
     1
  0
XRECORD
  5
42B
102
{ACAD_REACTORS
330
42A
102
}
330
42A
100
AcDbXrecord
280
     1
102
RTVSPropertyOp0
 70
     1
102
RTVSPropertyOp1
 70
     1
102
RTVSPropertyOp2
 70
     1
102
RTVSPropertyOp3
 70
     1
102
RTVSPropertyOp4
 70
     1
102
RTVSPropertyOp5
 70
     1
102
RTVSPropertyOp6
 70
     1
102
RTVSPropertyOp7
 70
     1
102
RTVSPropertyOp8
 70
     1
102
RTVSPropertyOp9
 70
     1
102
RTVSPropertyOp10
 70
     1
102
RTVSPropertyOp11
 70
     1
102
RTVSPropertyOp12
 70
     1
102
RTVSPropertyOp13
 70
     1
102
RTVSPropertyOp14
 70
     1
102
RTVSPropertyOp15
 70
     1
102
RTVSPropertyOp16
 70
     1
102
RTVSPropertyOp17
 70
     1
102
RTVSPropertyOp18
 70
     1
102
RTVSPropertyOp19
 70
     1
102
RTVSPropertyOp20
 70
     1
102
RTVSPropertyOp21
 70
     1
102
RTVSPropertyOp22
 70
     1
102
RTVSPropertyOp23
 70
     1
102
RTVSPropertyOp24
 70
     1
102
RTVSPropertyOp25
 70
     1
102
RTVSPropertyOp26
 70
     1
102
RTVSPropertyOp27
 70
     1
102
RTVSPropertyOp28
 70
     1
102
RTVSPropertyOp29
 70
     1
102
RTVSPropertyOp30
 70
     1
102
RTVSPropertyOp31
 70
     1
102
RTVSPropertyOp32
 70
     1
102
RTVSPropertyOp33
 70
     1
102
RTVSPropertyOp34
 70
     1
102
RTVSPropertyOp35
 70
     1
102
RTVSPropertyOp36
 70
     1
102
RTVSPropertyOp37
 70
     1
102
RTVSPropertyOp38
 70
     1
102
RTVSPropertyOp39
 70
     1
102
RTVSPropertyOp40
 70
     1
102
RTVSPropertyOp41
 70
     1
102
RTVSPropertyOp42
 70
     1
102
RTVSPropertyOp43
 70
     1
102
RTVSPropertyOp44
 70
     1
102
RTVSPropertyOp45
 70
     1
102
RTVSPropertyOp46
 70
     1
102
RTVSPropertyOp47
 70
     1
102
RTVSPropertyOp48
 70
     1
102
RTVSPropertyOp49
 70
     1
102
RTVSPropertyOp50
 70
     1
102
RTVSPropertyOp51
 70
     0
102
RTVSPropertyOp52
 70
     0
102
RTVSPropertyOp53
 70
     1
102
RTVSPropertyOp54
 70
     1
102
RTVSPropertyOp55
 70
     1
102
RTVSPropertyOp56
 70
     1
102
RTVSPropertyOp57
 70
     1
102
RTVSPost2010Prop28
280
     0
102
RTVSPost2010PropOp28
 70
     1
102
RTVSPost2010Prop29
280
     1
102
RTVSPost2010PropOp29
 70
     1
102
RTVSPost2010Prop30
280
     1
102
RTVSPost2010PropOp30
 70
     1
102
RTVSPost2010Prop31
280
     0
102
RTVSPost2010PropOp31
 70
     1
102
RTVSPost2010Prop32
280
     0
102
RTVSPost2010PropOp32
 70
     1
102
RTVSPost2010Prop33
280
     0
102
RTVSPost2010PropOp33
 70
     1
102
RTVSPost2010Prop34
280
     0
102
RTVSPost2010PropOp34
 70
     1
102
RTVSPost2010Prop35
280
     0
102
RTVSPost2010PropOp35
 70
     1
102
RTVSPost2010Prop36
280
     0
102
RTVSPost2010PropOp36
 70
     1
102
RTVSPost2010Prop37
 90
       50
102
RTVSPost2010PropOp37
 70
     1
102
RTVSPost2010Prop38
140
0.0
102
RTVSPost2010PropOp38
 70
     1
102
RTVSPost2010Prop39
140
1.0
102
RTVSPost2010PropOp39
 70
     1
102
RTVSPost2010Prop40
 90
        0
102
RTVSPost2010PropOp40
 70
     1
102
RTVSPost2010Prop41ColorIndex
 90
       18
102
RTVSPost2010Prop41ColorRGB
 90
        0
102
RTVSPost2010PropOp41
 70
     1
102
RTVSPost2010Prop42
 90
       50
102
RTVSPost2010PropOp42
 70
     1
102
RTVSPost2010Prop43
 90
        3
102
RTVSPost2010PropOp43
 70
     1
102
RTVSPost2010Prop44ColorIndex
 90
        5
102
RTVSPost2010Prop44ColorRGB
 90
      255
102
RTVSPost2010PropOp44
 70
     1
102
RTVSPost2010Prop45
280
     0
102
RTVSPost2010PropOp45
 70
     1
102
RTVSPost2010Prop46
 90
       50
102
RTVSPost2010PropOp46
 70
     1
102
RTVSPost2010Prop47
 90
       50
102
RTVSPost2010PropOp47
 70
     1
102
RTVSPost2010Prop48
 90
       50
102
RTVSPost2010PropOp48
 70
     1
102
RTVSPost2010Prop49
280
     0
102
RTVSPost2010PropOp49
 70
     1
102
RTVSPost2010Prop50
 90
       50
102
RTVSPost2010PropOp50
 70
     1
102
RTVSPost2010Prop51ColorIndex
 90
      256
102
RTVSPost2010Prop51ColorRGB
 90
-16777216
102
RTVSPost2010PropOp51
 70
     0
102
RTVSPost2010Prop52
140
1.0
102
RTVSPost2010PropOp52
 70
     0
102
RTVSPost2010Prop53
 90
        2
102
RTVSPost2010PropOp53
 70
     1
102
RTVSPost2010Prop54
  1
strokes_ogs.tif
102
RTVSPost2010PropOp54
 70
     1
102
RTVSPost2010Prop55
280
     0
102
RTVSPost2010PropOp55
 70
     1
102
RTVSPost2010Prop56
140
1.0
102
RTVSPost2010PropOp56
 70
     1
102
RTVSPost2010Prop57
140
1.0
102
RTVSPost2010PropOp57
 70
     1
  0
XRECORD
  5
43B
102
{ACAD_REACTORS
330
43A
102
}
330
43A
100
AcDbXrecord
280
     1
102
RTVSPropertyOp0
 70
     0
102
RTVSPropertyOp1
 70
     0
102
RTVSPropertyOp2
 70
     0
102
RTVSPropertyOp3
 70
     0
102
RTVSPropertyOp4
 70
     0
102
RTVSPropertyOp5
 70
     0
102
RTVSPropertyOp6
 70
     0
102
RTVSPropertyOp7
 70
     0
102
RTVSPropertyOp8
 70
     0
102
RTVSPropertyOp9
 70
     0
102
RTVSPropertyOp10
 70
     0
102
RTVSPropertyOp11
 70
     0
102
RTVSPropertyOp12
 70
     0
102
RTVSPropertyOp13
 70
     0
102
RTVSPropertyOp14
 70
     2
102
RTVSPropertyOp15
 70
     0
102
RTVSPropertyOp16
 70
     0
102
RTVSPropertyOp17
 70
     0
102
RTVSPropertyOp18
 70
     0
102
RTVSPropertyOp19
 70
     0
102
RTVSPropertyOp20
 70
     0
102
RTVSPropertyOp21
 70
     0
102
RTVSPropertyOp22
 70
     0
102
RTVSPropertyOp23
 70
     0
102
RTVSPropertyOp24
 70
     0
102
RTVSPropertyOp25
 70
     0
102
RTVSPropertyOp26
 70
     0
102
RTVSPropertyOp27
 70
     0
102
RTVSPropertyOp28
 70
     0
102
RTVSPropertyOp29
 70
     0
102
RTVSPropertyOp30
 70
     0
102
RTVSPropertyOp31
 70
     0
102
RTVSPropertyOp32
 70
     0
102
RTVSPropertyOp33
 70
     0
102
RTVSPropertyOp34
 70
     0
102
RTVSPropertyOp35
 70
     0
102
RTVSPropertyOp36
 70
     0
102
RTVSPropertyOp37
 70
     0
102
RTVSPropertyOp38
 70
     0
102
RTVSPropertyOp39
 70
     0
102
RTVSPropertyOp40
 70
     0
102
RTVSPropertyOp41
 70
     0
102
RTVSPropertyOp42
 70
     0
102
RTVSPropertyOp43
 70
     0
102
RTVSPropertyOp44
 70
     0
102
RTVSPropertyOp45
 70
     0
102
RTVSPropertyOp46
 70
     0
102
RTVSPropertyOp47
 70
     0
102
RTVSPropertyOp48
 70
     0
102
RTVSPropertyOp49
 70
     0
102
RTVSPropertyOp50
 70
     0
102
RTVSPropertyOp51
 70
     0
102
RTVSPropertyOp52
 70
     0
102
RTVSPropertyOp53
 70
     0
102
RTVSPropertyOp54
 70
     0
102
RTVSPropertyOp55
 70
     0
102
RTVSPropertyOp56
 70
     0
102
RTVSPropertyOp57
 70
     0
102
RTVSPost2010Prop28
280
     0
102
RTVSPost2010PropOp28
 70
     0
102
RTVSPost2010Prop29
280
     1
102
RTVSPost2010PropOp29
 70
     0
102
RTVSPost2010Prop30
280
     1
102
RTVSPost2010PropOp30
 70
     0
102
RTVSPost2010Prop31
280
     0
102
RTVSPost2010PropOp31
 70
     0
102
RTVSPost2010Prop32
280
     0
102
RTVSPost2010PropOp32
 70
     0
102
RTVSPost2010Prop33
280
     0
102
RTVSPost2010PropOp33
 70
     0
102
RTVSPost2010Prop34
280
     0
102
RTVSPost2010PropOp34
 70
     0
102
RTVSPost2010Prop35
280
     0
102
RTVSPost2010PropOp35
 70
     0
102
RTVSPost2010Prop36
280
     0
102
RTVSPost2010PropOp36
 70
     0
102
RTVSPost2010Prop37
 90
       50
102
RTVSPost2010PropOp37
 70
     0
102
RTVSPost2010Prop38
140
0.0
102
RTVSPost2010PropOp38
 70
     0
102
RTVSPost2010Prop39
140
1.0
102
RTVSPost2010PropOp39
 70
     0
102
RTVSPost2010Prop40
 90
        0
102
RTVSPost2010PropOp40
 70
     0
102
RTVSPost2010Prop41ColorIndex
 90
       18
102
RTVSPost2010Prop41ColorRGB
 90
        0
102
RTVSPost2010PropOp41
 70
     0
102
RTVSPost2010Prop42
 90
       50
102
RTVSPost2010PropOp42
 70
     0
102
RTVSPost2010Prop43
 90
        3
102
RTVSPost2010PropOp43
 70
     0
102
RTVSPost2010Prop44ColorIndex
 90
        5
102
RTVSPost2010Prop44ColorRGB
 90
      255
102
RTVSPost2010PropOp44
 70
     0
102
RTVSPost2010Prop45
280
     0
102
RTVSPost2010PropOp45
 70
     0
102
RTVSPost2010Prop46
 90
       50
102
RTVSPost2010PropOp46
 70
     0
102
RTVSPost2010Prop47
 90
       50
102
RTVSPost2010PropOp47
 70
     0
102
RTVSPost2010Prop48
 90
       50
102
RTVSPost2010PropOp48
 70
     0
102
RTVSPost2010Prop49
280
     0
102
RTVSPost2010PropOp49
 70
     0
102
RTVSPost2010Prop50
 90
       50
102
RTVSPost2010PropOp50
 70
     0
102
RTVSPost2010Prop51ColorIndex
 90
      256
102
RTVSPost2010Prop51ColorRGB
 90
-16777216
102
RTVSPost2010PropOp51
 70
     0
102
RTVSPost2010Prop52
140
1.0
102
RTVSPost2010PropOp52
 70
     0
102
RTVSPost2010Prop53
 90
        2
102
RTVSPost2010PropOp53
 70
     0
102
RTVSPost2010Prop54
  1
strokes_ogs.tif
102
RTVSPost2010PropOp54
 70
     0
102
RTVSPost2010Prop55
280
     0
102
RTVSPost2010PropOp55
 70
     0
102
RTVSPost2010Prop56
140
1.0
102
RTVSPost2010PropOp56
 70
     0
102
RTVSPost2010Prop57
140
1.0
102
RTVSPost2010PropOp57
 70
     0
  0
XRECORD
  5
433
102
{ACAD_REACTORS
330
432
102
}
330
432
100
AcDbXrecord
280
     1
102
RTVSPropertyOp0
 70
     1
102
RTVSPropertyOp1
 70
     1
102
RTVSPropertyOp2
 70
     1
102
RTVSPropertyOp3
 70
     1
102
RTVSPropertyOp4
 70
     1
102
RTVSPropertyOp5
 70
     1
102
RTVSPropertyOp6
 70
     1
102
RTVSPropertyOp7
 70
     1
102
RTVSPropertyOp8
 70
     1
102
RTVSPropertyOp9
 70
     1
102
RTVSPropertyOp10
 70
     1
102
RTVSPropertyOp11
 70
     1
102
RTVSPropertyOp12
 70
     1
102
RTVSPropertyOp13
 70
     1
102
RTVSPropertyOp14
 70
     1
102
RTVSPropertyOp15
 70
     1
102
RTVSPropertyOp16
 70
     1
102
RTVSPropertyOp17
 70
     1
102
RTVSPropertyOp18
 70
     1
102
RTVSPropertyOp19
 70
     1
102
RTVSPropertyOp20
 70
     1
102
RTVSPropertyOp21
 70
     1
102
RTVSPropertyOp22
 70
     1
102
RTVSPropertyOp23
 70
     1
102
RTVSPropertyOp24
 70
     1
102
RTVSPropertyOp25
 70
     1
102
RTVSPropertyOp26
 70
     1
102
RTVSPropertyOp27
 70
     1
102
RTVSPropertyOp28
 70
     1
102
RTVSPropertyOp29
 70
     1
102
RTVSPropertyOp30
 70
     1
102
RTVSPropertyOp31
 70
     1
102
RTVSPropertyOp32
 70
     1
102
RTVSPropertyOp33
 70
     1
102
RTVSPropertyOp34
 70
     1
102
RTVSPropertyOp35
 70
     1
102
RTVSPropertyOp36
 70
     1
102
RTVSPropertyOp37
 70
     1
102
RTVSPropertyOp38
 70
     1
102
RTVSPropertyOp39
 70
     1
102
RTVSPropertyOp40
 70
     1
102
RTVSPropertyOp41
 70
     1
102
RTVSPropertyOp42
 70
     1
102
RTVSPropertyOp43
 70
     1
102
RTVSPropertyOp44
 70
     1
102
RTVSPropertyOp45
 70
     1
102
RTVSPropertyOp46
 70
     1
102
RTVSPropertyOp47
 70
     1
102
RTVSPropertyOp48
 70
     1
102
RTVSPropertyOp49
 70
     1
102
RTVSPropertyOp50
 70
     1
102
RTVSPropertyOp51
 70
     0
102
RTVSPropertyOp52
 70
     0
102
RTVSPropertyOp53
 70
     1
102
RTVSPropertyOp54
 70
     1
102
RTVSPropertyOp55
 70
     1
102
RTVSPropertyOp56
 70
     1
102
RTVSPropertyOp57
 70
     1
102
RTVSPost2010Prop28
280
     0
102
RTVSPost2010PropOp28
 70
     1
102
RTVSPost2010Prop29
280
     1
102
RTVSPost2010PropOp29
 70
     1
102
RTVSPost2010Prop30
280
     1
102
RTVSPost2010PropOp30
 70
     1
102
RTVSPost2010Prop31
280
     0
102
RTVSPost2010PropOp31
 70
     1
102
RTVSPost2010Prop32
280
     0
102
RTVSPost2010PropOp32
 70
     1
102
RTVSPost2010Prop33
280
     0
102
RTVSPost2010PropOp33
 70
     1
102
RTVSPost2010Prop34
280
     0
102
RTVSPost2010PropOp34
 70
     1
102
RTVSPost2010Prop35
280
     0
102
RTVSPost2010PropOp35
 70
     1
102
RTVSPost2010Prop36
280
     0
102
RTVSPost2010PropOp36
 70
     1
102
RTVSPost2010Prop37
 90
       50
102
RTVSPost2010PropOp37
 70
     1
102
RTVSPost2010Prop38
140
0.0
102
RTVSPost2010PropOp38
 70
     1
102
RTVSPost2010Prop39
140
1.0
102
RTVSPost2010PropOp39
 70
     1
102
RTVSPost2010Prop40
 90
        0
102
RTVSPost2010PropOp40
 70
     1
102
RTVSPost2010Prop41ColorIndex
 90
       18
102
RTVSPost2010Prop41ColorRGB
 90
        0
102
RTVSPost2010PropOp41
 70
     1
102
RTVSPost2010Prop42
 90
       50
102
RTVSPost2010PropOp42
 70
     1
102
RTVSPost2010Prop43
 90
        3
102
RTVSPost2010PropOp43
 70
     1
102
RTVSPost2010Prop44ColorIndex
 90
        5
102
RTVSPost2010Prop44ColorRGB
 90
      255
102
RTVSPost2010PropOp44
 70
     1
102
RTVSPost2010Prop45
280
     0
102
RTVSPost2010PropOp45
 70
     1
102
RTVSPost2010Prop46
 90
       50
102
RTVSPost2010PropOp46
 70
     1
102
RTVSPost2010Prop47
 90
       50
102
RTVSPost2010PropOp47
 70
     1
102
RTVSPost2010Prop48
 90
       50
102
RTVSPost2010PropOp48
 70
     1
102
RTVSPost2010Prop49
280
     0
102
RTVSPost2010PropOp49
 70
     1
102
RTVSPost2010Prop50
 90
       50
102
RTVSPost2010PropOp50
 70
     1
102
RTVSPost2010Prop51ColorIndex
 90
      256
102
RTVSPost2010Prop51ColorRGB
 90
-16777216
102
RTVSPost2010PropOp51
 70
     0
102
RTVSPost2010Prop52
140
1.0
102
RTVSPost2010PropOp52
 70
     0
102
RTVSPost2010Prop53
 90
        2
102
RTVSPost2010PropOp53
 70
     1
102
RTVSPost2010Prop54
  1
strokes_ogs.tif
102
RTVSPost2010PropOp54
 70
     1
102
RTVSPost2010Prop55
280
     0
102
RTVSPost2010PropOp55
 70
     1
102
RTVSPost2010Prop56
140
1.0
102
RTVSPost2010PropOp56
 70
     1
102
RTVSPost2010Prop57
140
1.0
102
RTVSPost2010PropOp57
 70
     1
  0
XRECORD
  5
417
102
{ACAD_REACTORS
330
416
102
}
330
416
100
AcDbXrecord
280
     1
102
RTVSPropertyOp0
 70
     1
102
RTVSPropertyOp1
 70
     1
102
RTVSPropertyOp2
 70
     1
102
RTVSPropertyOp3
 70
     1
102
RTVSPropertyOp4
 70
     1
102
RTVSPropertyOp5
 70
     1
102
RTVSPropertyOp6
 70
     1
102
RTVSPropertyOp7
 70
     1
102
RTVSPropertyOp8
 70
     1
102
RTVSPropertyOp9
 70
     1
102
RTVSPropertyOp10
 70
     1
102
RTVSPropertyOp11
 70
     1
102
RTVSPropertyOp12
 70
     1
102
RTVSPropertyOp13
 70
     1
102
RTVSPropertyOp14
 70
     1
102
RTVSPropertyOp15
 70
     1
102
RTVSPropertyOp16
 70
     1
102
RTVSPropertyOp17
 70
     1
102
RTVSPropertyOp18
 70
     1
102
RTVSPropertyOp19
 70
     1
102
RTVSPropertyOp20
 70
     1
102
RTVSPropertyOp21
 70
     1
102
RTVSPropertyOp22
 70
     1
102
RTVSPropertyOp23
 70
     1
102
RTVSPropertyOp24
 70
     1
102
RTVSPropertyOp25
 70
     1
102
RTVSPropertyOp26
 70
     1
102
RTVSPropertyOp27
 70
     1
102
RTVSPropertyOp28
 70
     1
102
RTVSPropertyOp29
 70
     1
102
RTVSPropertyOp30
 70
     1
102
RTVSPropertyOp31
 70
     1
102
RTVSPropertyOp32
 70
     1
102
RTVSPropertyOp33
 70
     1
102
RTVSPropertyOp34
 70
     1
102
RTVSPropertyOp35
 70
     1
102
RTVSPropertyOp36
 70
     1
102
RTVSPropertyOp37
 70
     1
102
RTVSPropertyOp38
 70
     1
102
RTVSPropertyOp39
 70
     1
102
RTVSPropertyOp40
 70
     1
102
RTVSPropertyOp41
 70
     1
102
RTVSPropertyOp42
 70
     1
102
RTVSPropertyOp43
 70
     1
102
RTVSPropertyOp44
 70
     1
102
RTVSPropertyOp45
 70
     1
102
RTVSPropertyOp46
 70
     1
102
RTVSPropertyOp47
 70
     1
102
RTVSPropertyOp48
 70
     1
102
RTVSPropertyOp49
 70
     1
102
RTVSPropertyOp50
 70
     1
102
RTVSPropertyOp51
 70
     0
102
RTVSPropertyOp52
 70
     0
102
RTVSPropertyOp53
 70
     1
102
RTVSPropertyOp54
 70
     1
102
RTVSPropertyOp55
 70
     1
102
RTVSPropertyOp56
 70
     1
102
RTVSPropertyOp57
 70
     1
102
RTVSPost2010Prop28
280
     0
102
RTVSPost2010PropOp28
 70
     1
102
RTVSPost2010Prop29
280
     1
102
RTVSPost2010PropOp29
 70
     1
102
RTVSPost2010Prop30
280
     1
102
RTVSPost2010PropOp30
 70
     1
102
RTVSPost2010Prop31
280
     0
102
RTVSPost2010PropOp31
 70
     1
102
RTVSPost2010Prop32
280
     0
102
RTVSPost2010PropOp32
 70
     1
102
RTVSPost2010Prop33
280
     0
102
RTVSPost2010PropOp33
 70
     1
102
RTVSPost2010Prop34
280
     0
102
RTVSPost2010PropOp34
 70
     1
102
RTVSPost2010Prop35
280
     0
102
RTVSPost2010PropOp35
 70
     1
102
RTVSPost2010Prop36
280
     0
102
RTVSPost2010PropOp36
 70
     1
102
RTVSPost2010Prop37
 90
       50
102
RTVSPost2010PropOp37
 70
     1
102
RTVSPost2010Prop38
140
0.0
102
RTVSPost2010PropOp38
 70
     1
102
RTVSPost2010Prop39
140
1.0
102
RTVSPost2010PropOp39
 70
     1
102
RTVSPost2010Prop40
 90
        0
102
RTVSPost2010PropOp40
 70
     1
102
RTVSPost2010Prop41ColorIndex
 90
       18
102
RTVSPost2010Prop41ColorRGB
 90
        0
102
RTVSPost2010PropOp41
 70
     1
102
RTVSPost2010Prop42
 90
       50
102
RTVSPost2010PropOp42
 70
     1
102
RTVSPost2010Prop43
 90
        3
102
RTVSPost2010PropOp43
 70
     1
102
RTVSPost2010Prop44ColorIndex
 90
        5
102
RTVSPost2010Prop44ColorRGB
 90
      255
102
RTVSPost2010PropOp44
 70
     1
102
RTVSPost2010Prop45
280
     0
102
RTVSPost2010PropOp45
 70
     1
102
RTVSPost2010Prop46
 90
       50
102
RTVSPost2010PropOp46
 70
     1
102
RTVSPost2010Prop47
 90
       50
102
RTVSPost2010PropOp47
 70
     1
102
RTVSPost2010Prop48
 90
       50
102
RTVSPost2010PropOp48
 70
     1
102
RTVSPost2010Prop49
280
     0
102
RTVSPost2010PropOp49
 70
     1
102
RTVSPost2010Prop50
 90
       50
102
RTVSPost2010PropOp50
 70
     1
102
RTVSPost2010Prop51ColorIndex
 90
      256
102
RTVSPost2010Prop51ColorRGB
 90
-16777216
102
RTVSPost2010PropOp51
 70
     0
102
RTVSPost2010Prop52
140
1.0
102
RTVSPost2010PropOp52
 70
     0
102
RTVSPost2010Prop53
 90
        2
102
RTVSPost2010PropOp53
 70
     1
102
RTVSPost2010Prop54
  1
strokes_ogs.tif
102
RTVSPost2010PropOp54
 70
     1
102
RTVSPost2010Prop55
280
     0
102
RTVSPost2010PropOp55
 70
     1
102
RTVSPost2010Prop56
140
1.0
102
RTVSPost2010PropOp56
 70
     1
102
RTVSPost2010Prop57
140
1.0
102
RTVSPost2010PropOp57
 70
     1
  0
XRECORD
  5
419
102
{ACAD_REACTORS
330
418
102
}
330
418
100
AcDbXrecord
280
     1
102
RTVSPropertyOp0
 70
     1
102
RTVSPropertyOp1
 70
     1
102
RTVSPropertyOp2
 70
     1
102
RTVSPropertyOp3
 70
     1
102
RTVSPropertyOp4
 70
     1
102
RTVSPropertyOp5
 70
     1
102
RTVSPropertyOp6
 70
     1
102
RTVSPropertyOp7
 70
     1
102
RTVSPropertyOp8
 70
     1
102
RTVSPropertyOp9
 70
     1
102
RTVSPropertyOp10
 70
     1
102
RTVSPropertyOp11
 70
     1
102
RTVSPropertyOp12
 70
     1
102
RTVSPropertyOp13
 70
     1
102
RTVSPropertyOp14
 70
     1
102
RTVSPropertyOp15
 70
     1
102
RTVSPropertyOp16
 70
     1
102
RTVSPropertyOp17
 70
     1
102
RTVSPropertyOp18
 70
     1
102
RTVSPropertyOp19
 70
     1
102
RTVSPropertyOp20
 70
     1
102
RTVSPropertyOp21
 70
     1
102
RTVSPropertyOp22
 70
     1
102
RTVSPropertyOp23
 70
     1
102
RTVSPropertyOp24
 70
     1
102
RTVSPropertyOp25
 70
     1
102
RTVSPropertyOp26
 70
     1
102
RTVSPropertyOp27
 70
     1
102
RTVSPropertyOp28
 70
     1
102
RTVSPropertyOp29
 70
     1
102
RTVSPropertyOp30
 70
     1
102
RTVSPropertyOp31
 70
     1
102
RTVSPropertyOp32
 70
     1
102
RTVSPropertyOp33
 70
     1
102
RTVSPropertyOp34
 70
     1
102
RTVSPropertyOp35
 70
     1
102
RTVSPropertyOp36
 70
     1
102
RTVSPropertyOp37
 70
     1
102
RTVSPropertyOp38
 70
     1
102
RTVSPropertyOp39
 70
     1
102
RTVSPropertyOp40
 70
     1
102
RTVSPropertyOp41
 70
     1
102
RTVSPropertyOp42
 70
     1
102
RTVSPropertyOp43
 70
     1
102
RTVSPropertyOp44
 70
     1
102
RTVSPropertyOp45
 70
     1
102
RTVSPropertyOp46
 70
     1
102
RTVSPropertyOp47
 70
     1
102
RTVSPropertyOp48
 70
     1
102
RTVSPropertyOp49
 70
     1
102
RTVSPropertyOp50
 70
     1
102
RTVSPropertyOp51
 70
     0
102
RTVSPropertyOp52
 70
     0
102
RTVSPropertyOp53
 70
     1
102
RTVSPropertyOp54
 70
     1
102
RTVSPropertyOp55
 70
     1
102
RTVSPropertyOp56
 70
     1
102
RTVSPropertyOp57
 70
     1
102
RTVSPost2010Prop28
280
     0
102
RTVSPost2010PropOp28
 70
     1
102
RTVSPost2010Prop29
280
     1
102
RTVSPost2010PropOp29
 70
     1
102
RTVSPost2010Prop30
280
     1
102
RTVSPost2010PropOp30
 70
     1
102
RTVSPost2010Prop31
280
     0
102
RTVSPost2010PropOp31
 70
     1
102
RTVSPost2010Prop32
280
     0
102
RTVSPost2010PropOp32
 70
     1
102
RTVSPost2010Prop33
280
     0
102
RTVSPost2010PropOp33
 70
     1
102
RTVSPost2010Prop34
280
     0
102
RTVSPost2010PropOp34
 70
     1
102
RTVSPost2010Prop35
280
     0
102
RTVSPost2010PropOp35
 70
     1
102
RTVSPost2010Prop36
280
     0
102
RTVSPost2010PropOp36
 70
     1
102
RTVSPost2010Prop37
 90
       50
102
RTVSPost2010PropOp37
 70
     1
102
RTVSPost2010Prop38
140
0.0
102
RTVSPost2010PropOp38
 70
     1
102
RTVSPost2010Prop39
140
1.0
102
RTVSPost2010PropOp39
 70
     1
102
RTVSPost2010Prop40
 90
        0
102
RTVSPost2010PropOp40
 70
     1
102
RTVSPost2010Prop41ColorIndex
 90
       18
102
RTVSPost2010Prop41ColorRGB
 90
        0
102
RTVSPost2010PropOp41
 70
     1
102
RTVSPost2010Prop42
 90
       50
102
RTVSPost2010PropOp42
 70
     1
102
RTVSPost2010Prop43
 90
        3
102
RTVSPost2010PropOp43
 70
     1
102
RTVSPost2010Prop44ColorIndex
 90
        5
102
RTVSPost2010Prop44ColorRGB
 90
      255
102
RTVSPost2010PropOp44
 70
     1
102
RTVSPost2010Prop45
280
     0
102
RTVSPost2010PropOp45
 70
     1
102
RTVSPost2010Prop46
 90
       50
102
RTVSPost2010PropOp46
 70
     1
102
RTVSPost2010Prop47
 90
       50
102
RTVSPost2010PropOp47
 70
     1
102
RTVSPost2010Prop48
 90
       50
102
RTVSPost2010PropOp48
 70
     1
102
RTVSPost2010Prop49
280
     0
102
RTVSPost2010PropOp49
 70
     1
102
RTVSPost2010Prop50
 90
       50
102
RTVSPost2010PropOp50
 70
     1
102
RTVSPost2010Prop51ColorIndex
 90
      256
102
RTVSPost2010Prop51ColorRGB
 90
-16777216
102
RTVSPost2010PropOp51
 70
     0
102
RTVSPost2010Prop52
140
1.0
102
RTVSPost2010PropOp52
 70
     0
102
RTVSPost2010Prop53
 90
        2
102
RTVSPost2010PropOp53
 70
     1
102
RTVSPost2010Prop54
  1
strokes_ogs.tif
102
RTVSPost2010PropOp54
 70
     1
102
RTVSPost2010Prop55
280
     0
102
RTVSPost2010PropOp55
 70
     1
102
RTVSPost2010Prop56
140
1.0
102
RTVSPost2010PropOp56
 70
     1
102
RTVSPost2010Prop57
140
1.0
102
RTVSPost2010PropOp57
 70
     1
  0
XRECORD
  5
41B
102
{ACAD_REACTORS
330
41A
102
}
330
41A
100
AcDbXrecord
280
     1
102
RTVSPropertyOp0
 70
     1
102
RTVSPropertyOp1
 70
     1
102
RTVSPropertyOp2
 70
     1
102
RTVSPropertyOp3
 70
     1
102
RTVSPropertyOp4
 70
     1
102
RTVSPropertyOp5
 70
     1
102
RTVSPropertyOp6
 70
     1
102
RTVSPropertyOp7
 70
     1
102
RTVSPropertyOp8
 70
     1
102
RTVSPropertyOp9
 70
     1
102
RTVSPropertyOp10
 70
     1
102
RTVSPropertyOp11
 70
     1
102
RTVSPropertyOp12
 70
     1
102
RTVSPropertyOp13
 70
     1
102
RTVSPropertyOp14
 70
     1
102
RTVSPropertyOp15
 70
     1
102
RTVSPropertyOp16
 70
     1
102
RTVSPropertyOp17
 70
     1
102
RTVSPropertyOp18
 70
     1
102
RTVSPropertyOp19
 70
     1
102
RTVSPropertyOp20
 70
     1
102
RTVSPropertyOp21
 70
     1
102
RTVSPropertyOp22
 70
     1
102
RTVSPropertyOp23
 70
     1
102
RTVSPropertyOp24
 70
     1
102
RTVSPropertyOp25
 70
     1
102
RTVSPropertyOp26
 70
     1
102
RTVSPropertyOp27
 70
     1
102
RTVSPropertyOp28
 70
     1
102
RTVSPropertyOp29
 70
     1
102
RTVSPropertyOp30
 70
     1
102
RTVSPropertyOp31
 70
     1
102
RTVSPropertyOp32
 70
     1
102
RTVSPropertyOp33
 70
     1
102
RTVSPropertyOp34
 70
     1
102
RTVSPropertyOp35
 70
     1
102
RTVSPropertyOp36
 70
     1
102
RTVSPropertyOp37
 70
     1
102
RTVSPropertyOp38
 70
     1
102
RTVSPropertyOp39
 70
     1
102
RTVSPropertyOp40
 70
     1
102
RTVSPropertyOp41
 70
     1
102
RTVSPropertyOp42
 70
     1
102
RTVSPropertyOp43
 70
     1
102
RTVSPropertyOp44
 70
     1
102
RTVSPropertyOp45
 70
     1
102
RTVSPropertyOp46
 70
     1
102
RTVSPropertyOp47
 70
     1
102
RTVSPropertyOp48
 70
     1
102
RTVSPropertyOp49
 70
     1
102
RTVSPropertyOp50
 70
     1
102
RTVSPropertyOp51
 70
     0
102
RTVSPropertyOp52
 70
     0
102
RTVSPropertyOp53
 70
     1
102
RTVSPropertyOp54
 70
     1
102
RTVSPropertyOp55
 70
     1
102
RTVSPropertyOp56
 70
     1
102
RTVSPropertyOp57
 70
     1
102
RTVSPost2010Prop28
280
     0
102
RTVSPost2010PropOp28
 70
     1
102
RTVSPost2010Prop29
280
     1
102
RTVSPost2010PropOp29
 70
     1
102
RTVSPost2010Prop30
280
     1
102
RTVSPost2010PropOp30
 70
     1
102
RTVSPost2010Prop31
280
     0
102
RTVSPost2010PropOp31
 70
     1
102
RTVSPost2010Prop32
280
     0
102
RTVSPost2010PropOp32
 70
     1
102
RTVSPost2010Prop33
280
     0
102
RTVSPost2010PropOp33
 70
     1
102
RTVSPost2010Prop34
280
     0
102
RTVSPost2010PropOp34
 70
     1
102
RTVSPost2010Prop35
280
     0
102
RTVSPost2010PropOp35
 70
     1
102
RTVSPost2010Prop36
280
     0
102
RTVSPost2010PropOp36
 70
     1
102
RTVSPost2010Prop37
 90
       50
102
RTVSPost2010PropOp37
 70
     1
102
RTVSPost2010Prop38
140
0.0
102
RTVSPost2010PropOp38
 70
     1
102
RTVSPost2010Prop39
140
1.0
102
RTVSPost2010PropOp39
 70
     1
102
RTVSPost2010Prop40
 90
        0
102
RTVSPost2010PropOp40
 70
     1
102
RTVSPost2010Prop41ColorIndex
 90
       18
102
RTVSPost2010Prop41ColorRGB
 90
        0
102
RTVSPost2010PropOp41
 70
     1
102
RTVSPost2010Prop42
 90
       50
102
RTVSPost2010PropOp42
 70
     1
102
RTVSPost2010Prop43
 90
        3
102
RTVSPost2010PropOp43
 70
     1
102
RTVSPost2010Prop44ColorIndex
 90
        5
102
RTVSPost2010Prop44ColorRGB
 90
      255
102
RTVSPost2010PropOp44
 70
     1
102
RTVSPost2010Prop45
280
     0
102
RTVSPost2010PropOp45
 70
     1
102
RTVSPost2010Prop46
 90
       50
102
RTVSPost2010PropOp46
 70
     1
102
RTVSPost2010Prop47
 90
       50
102
RTVSPost2010PropOp47
 70
     1
102
RTVSPost2010Prop48
 90
       50
102
RTVSPost2010PropOp48
 70
     1
102
RTVSPost2010Prop49
280
     0
102
RTVSPost2010PropOp49
 70
     1
102
RTVSPost2010Prop50
 90
       50
102
RTVSPost2010PropOp50
 70
     1
102
RTVSPost2010Prop51ColorIndex
 90
      256
102
RTVSPost2010Prop51ColorRGB
 90
-16777216
102
RTVSPost2010PropOp51
 70
     0
102
RTVSPost2010Prop52
140
1.0
102
RTVSPost2010PropOp52
 70
     0
102
RTVSPost2010Prop53
 90
        2
102
RTVSPost2010PropOp53
 70
     1
102
RTVSPost2010Prop54
  1
strokes_ogs.tif
102
RTVSPost2010PropOp54
 70
     1
102
RTVSPost2010Prop55
280
     0
102
RTVSPost2010PropOp55
 70
     1
102
RTVSPost2010Prop56
140
1.0
102
RTVSPost2010PropOp56
 70
     1
102
RTVSPost2010Prop57
140
1.0
102
RTVSPost2010PropOp57
 70
     1
  0
XRECORD
  5
41D
102
{ACAD_REACTORS
330
41C
102
}
330
41C
100
AcDbXrecord
280
     1
102
RTVSPropertyOp0
 70
     1
102
RTVSPropertyOp1
 70
     1
102
RTVSPropertyOp2
 70
     1
102
RTVSPropertyOp3
 70
     1
102
RTVSPropertyOp4
 70
     1
102
RTVSPropertyOp5
 70
     1
102
RTVSPropertyOp6
 70
     1
102
RTVSPropertyOp7
 70
     1
102
RTVSPropertyOp8
 70
     1
102
RTVSPropertyOp9
 70
     1
102
RTVSPropertyOp10
 70
     1
102
RTVSPropertyOp11
 70
     1
102
RTVSPropertyOp12
 70
     1
102
RTVSPropertyOp13
 70
     1
102
RTVSPropertyOp14
 70
     1
102
RTVSPropertyOp15
 70
     1
102
RTVSPropertyOp16
 70
     1
102
RTVSPropertyOp17
 70
     1
102
RTVSPropertyOp18
 70
     1
102
RTVSPropertyOp19
 70
     1
102
RTVSPropertyOp20
 70
     1
102
RTVSPropertyOp21
 70
     1
102
RTVSPropertyOp22
 70
     1
102
RTVSPropertyOp23
 70
     1
102
RTVSPropertyOp24
 70
     1
102
RTVSPropertyOp25
 70
     1
102
RTVSPropertyOp26
 70
     1
102
RTVSPropertyOp27
 70
     1
102
RTVSPropertyOp28
 70
     1
102
RTVSPropertyOp29
 70
     1
102
RTVSPropertyOp30
 70
     1
102
RTVSPropertyOp31
 70
     1
102
RTVSPropertyOp32
 70
     1
102
RTVSPropertyOp33
 70
     1
102
RTVSPropertyOp34
 70
     1
102
RTVSPropertyOp35
 70
     1
102
RTVSPropertyOp36
 70
     1
102
RTVSPropertyOp37
 70
     1
102
RTVSPropertyOp38
 70
     1
102
RTVSPropertyOp39
 70
     1
102
RTVSPropertyOp40
 70
     1
102
RTVSPropertyOp41
 70
     1
102
RTVSPropertyOp42
 70
     1
102
RTVSPropertyOp43
 70
     1
102
RTVSPropertyOp44
 70
     1
102
RTVSPropertyOp45
 70
     1
102
RTVSPropertyOp46
 70
     1
102
RTVSPropertyOp47
 70
     1
102
RTVSPropertyOp48
 70
     1
102
RTVSPropertyOp49
 70
     1
102
RTVSPropertyOp50
 70
     1
102
RTVSPropertyOp51
 70
     0
102
RTVSPropertyOp52
 70
     0
102
RTVSPropertyOp53
 70
     1
102
RTVSPropertyOp54
 70
     1
102
RTVSPropertyOp55
 70
     1
102
RTVSPropertyOp56
 70
     1
102
RTVSPropertyOp57
 70
     1
102
RTVSPost2010Prop28
280
     0
102
RTVSPost2010PropOp28
 70
     1
102
RTVSPost2010Prop29
280
     1
102
RTVSPost2010PropOp29
 70
     1
102
RTVSPost2010Prop30
280
     1
102
RTVSPost2010PropOp30
 70
     1
102
RTVSPost2010Prop31
280
     0
102
RTVSPost2010PropOp31
 70
     1
102
RTVSPost2010Prop32
280
     0
102
RTVSPost2010PropOp32
 70
     1
102
RTVSPost2010Prop33
280
     0
102
RTVSPost2010PropOp33
 70
     1
102
RTVSPost2010Prop34
280
     0
102
RTVSPost2010PropOp34
 70
     1
102
RTVSPost2010Prop35
280
     0
102
RTVSPost2010PropOp35
 70
     1
102
RTVSPost2010Prop36
280
     0
102
RTVSPost2010PropOp36
 70
     1
102
RTVSPost2010Prop37
 90
       50
102
RTVSPost2010PropOp37
 70
     1
102
RTVSPost2010Prop38
140
0.0
102
RTVSPost2010PropOp38
 70
     1
102
RTVSPost2010Prop39
140
1.0
102
RTVSPost2010PropOp39
 70
     1
102
RTVSPost2010Prop40
 90
        0
102
RTVSPost2010PropOp40
 70
     1
102
RTVSPost2010Prop41ColorIndex
 90
       18
102
RTVSPost2010Prop41ColorRGB
 90
        0
102
RTVSPost2010PropOp41
 70
     1
102
RTVSPost2010Prop42
 90
       50
102
RTVSPost2010PropOp42
 70
     1
102
RTVSPost2010Prop43
 90
        3
102
RTVSPost2010PropOp43
 70
     1
102
RTVSPost2010Prop44ColorIndex
 90
        5
102
RTVSPost2010Prop44ColorRGB
 90
      255
102
RTVSPost2010PropOp44
 70
     1
102
RTVSPost2010Prop45
280
     0
102
RTVSPost2010PropOp45
 70
     1
102
RTVSPost2010Prop46
 90
       50
102
RTVSPost2010PropOp46
 70
     1
102
RTVSPost2010Prop47
 90
       50
102
RTVSPost2010PropOp47
 70
     1
102
RTVSPost2010Prop48
 90
       50
102
RTVSPost2010PropOp48
 70
     1
102
RTVSPost2010Prop49
280
     0
102
RTVSPost2010PropOp49
 70
     1
102
RTVSPost2010Prop50
 90
       50
102
RTVSPost2010PropOp50
 70
     1
102
RTVSPost2010Prop51ColorIndex
 90
      256
102
RTVSPost2010Prop51ColorRGB
 90
-16777216
102
RTVSPost2010PropOp51
 70
     0
102
RTVSPost2010Prop52
140
1.0
102
RTVSPost2010PropOp52
 70
     0
102
RTVSPost2010Prop53
 90
        2
102
RTVSPost2010PropOp53
 70
     1
102
RTVSPost2010Prop54
  1
strokes_ogs.tif
102
RTVSPost2010PropOp54
 70
     1
102
RTVSPost2010Prop55
280
     0
102
RTVSPost2010PropOp55
 70
     1
102
RTVSPost2010Prop56
140
1.0
102
RTVSPost2010PropOp56
 70
     1
102
RTVSPost2010Prop57
140
1.0
102
RTVSPost2010PropOp57
 70
     1
  0
XRECORD
  5
423
102
{ACAD_REACTORS
330
422
102
}
330
422
100
AcDbXrecord
280
     1
102
RTVSPropertyOp0
 70
     1
102
RTVSPropertyOp1
 70
     1
102
RTVSPropertyOp2
 70
     1
102
RTVSPropertyOp3
 70
     1
102
RTVSPropertyOp4
 70
     1
102
RTVSPropertyOp5
 70
     1
102
RTVSPropertyOp6
 70
     1
102
RTVSPropertyOp7
 70
     1
102
RTVSPropertyOp8
 70
     1
102
RTVSPropertyOp9
 70
     1
102
RTVSPropertyOp10
 70
     1
102
RTVSPropertyOp11
 70
     1
102
RTVSPropertyOp12
 70
     1
102
RTVSPropertyOp13
 70
     1
102
RTVSPropertyOp14
 70
     1
102
RTVSPropertyOp15
 70
     1
102
RTVSPropertyOp16
 70
     1
102
RTVSPropertyOp17
 70
     1
102
RTVSPropertyOp18
 70
     1
102
RTVSPropertyOp19
 70
     1
102
RTVSPropertyOp20
 70
     1
102
RTVSPropertyOp21
 70
     1
102
RTVSPropertyOp22
 70
     1
102
RTVSPropertyOp23
 70
     1
102
RTVSPropertyOp24
 70
     1
102
RTVSPropertyOp25
 70
     1
102
RTVSPropertyOp26
 70
     1
102
RTVSPropertyOp27
 70
     1
102
RTVSPropertyOp28
 70
     1
102
RTVSPropertyOp29
 70
     1
102
RTVSPropertyOp30
 70
     1
102
RTVSPropertyOp31
 70
     1
102
RTVSPropertyOp32
 70
     1
102
RTVSPropertyOp33
 70
     1
102
RTVSPropertyOp34
 70
     1
102
RTVSPropertyOp35
 70
     1
102
RTVSPropertyOp36
 70
     1
102
RTVSPropertyOp37
 70
     1
102
RTVSPropertyOp38
 70
     1
102
RTVSPropertyOp39
 70
     1
102
RTVSPropertyOp40
 70
     1
102
RTVSPropertyOp41
 70
     1
102
RTVSPropertyOp42
 70
     1
102
RTVSPropertyOp43
 70
     1
102
RTVSPropertyOp44
 70
     1
102
RTVSPropertyOp45
 70
     1
102
RTVSPropertyOp46
 70
     1
102
RTVSPropertyOp47
 70
     1
102
RTVSPropertyOp48
 70
     1
102
RTVSPropertyOp49
 70
     1
102
RTVSPropertyOp50
 70
     1
102
RTVSPropertyOp51
 70
     0
102
RTVSPropertyOp52
 70
     0
102
RTVSPropertyOp53
 70
     1
102
RTVSPropertyOp54
 70
     1
102
RTVSPropertyOp55
 70
     1
102
RTVSPropertyOp56
 70
     1
102
RTVSPropertyOp57
 70
     1
102
RTVSPost2010Prop28
280
     0
102
RTVSPost2010PropOp28
 70
     1
102
RTVSPost2010Prop29
280
     1
102
RTVSPost2010PropOp29
 70
     1
102
RTVSPost2010Prop30
280
     1
102
RTVSPost2010PropOp30
 70
     1
102
RTVSPost2010Prop31
280
     0
102
RTVSPost2010PropOp31
 70
     1
102
RTVSPost2010Prop32
280
     0
102
RTVSPost2010PropOp32
 70
     1
102
RTVSPost2010Prop33
280
     0
102
RTVSPost2010PropOp33
 70
     1
102
RTVSPost2010Prop34
280
     0
102
RTVSPost2010PropOp34
 70
     1
102
RTVSPost2010Prop35
280
     0
102
RTVSPost2010PropOp35
 70
     1
102
RTVSPost2010Prop36
280
     0
102
RTVSPost2010PropOp36
 70
     1
102
RTVSPost2010Prop37
 90
       50
102
RTVSPost2010PropOp37
 70
     1
102
RTVSPost2010Prop38
140
0.0
102
RTVSPost2010PropOp38
 70
     1
102
RTVSPost2010Prop39
140
1.0
102
RTVSPost2010PropOp39
 70
     1
102
RTVSPost2010Prop40
 90
        0
102
RTVSPost2010PropOp40
 70
     1
102
RTVSPost2010Prop41ColorIndex
 90
       18
102
RTVSPost2010Prop41ColorRGB
 90
        0
102
RTVSPost2010PropOp41
 70
     1
102
RTVSPost2010Prop42
 90
       50
102
RTVSPost2010PropOp42
 70
     1
102
RTVSPost2010Prop43
 90
        3
102
RTVSPost2010PropOp43
 70
     1
102
RTVSPost2010Prop44ColorIndex
 90
        5
102
RTVSPost2010Prop44ColorRGB
 90
      255
102
RTVSPost2010PropOp44
 70
     1
102
RTVSPost2010Prop45
280
     0
102
RTVSPost2010PropOp45
 70
     1
102
RTVSPost2010Prop46
 90
       50
102
RTVSPost2010PropOp46
 70
     1
102
RTVSPost2010Prop47
 90
       50
102
RTVSPost2010PropOp47
 70
     1
102
RTVSPost2010Prop48
 90
       50
102
RTVSPost2010PropOp48
 70
     1
102
RTVSPost2010Prop49
280
     0
102
RTVSPost2010PropOp49
 70
     1
102
RTVSPost2010Prop50
 90
       50
102
RTVSPost2010PropOp50
 70
     1
102
RTVSPost2010Prop51ColorIndex
 90
      256
102
RTVSPost2010Prop51ColorRGB
 90
-16777216
102
RTVSPost2010PropOp51
 70
     0
102
RTVSPost2010Prop52
140
1.0
102
RTVSPost2010PropOp52
 70
     0
102
RTVSPost2010Prop53
 90
        2
102
RTVSPost2010PropOp53
 70
     1
102
RTVSPost2010Prop54
  1
strokes_ogs.tif
102
RTVSPost2010PropOp54
 70
     1
102
RTVSPost2010Prop55
280
     0
102
RTVSPost2010PropOp55
 70
     1
102
RTVSPost2010Prop56
140
1.0
102
RTVSPost2010PropOp56
 70
     1
102
RTVSPost2010Prop57
140
1.0
102
RTVSPost2010PropOp57
 70
     1
  0
XRECORD
  5
437
102
{ACAD_REACTORS
330
436
102
}
330
436
100
AcDbXrecord
280
     1
102
RTVSPropertyOp0
 70
     0
102
RTVSPropertyOp1
 70
     0
102
RTVSPropertyOp2
 70
     0
102
RTVSPropertyOp3
 70
     0
102
RTVSPropertyOp4
 70
     0
102
RTVSPropertyOp5
 70
     0
102
RTVSPropertyOp6
 70
     0
102
RTVSPropertyOp7
 70
     0
102
RTVSPropertyOp8
 70
     0
102
RTVSPropertyOp9
 70
     0
102
RTVSPropertyOp10
 70
     0
102
RTVSPropertyOp11
 70
     0
102
RTVSPropertyOp12
 70
     0
102
RTVSPropertyOp13
 70
     0
102
RTVSPropertyOp14
 70
     2
102
RTVSPropertyOp15
 70
     0
102
RTVSPropertyOp16
 70
     0
102
RTVSPropertyOp17
 70
     0
102
RTVSPropertyOp18
 70
     0
102
RTVSPropertyOp19
 70
     0
102
RTVSPropertyOp20
 70
     0
102
RTVSPropertyOp21
 70
     0
102
RTVSPropertyOp22
 70
     0
102
RTVSPropertyOp23
 70
     0
102
RTVSPropertyOp24
 70
     0
102
RTVSPropertyOp25
 70
     0
102
RTVSPropertyOp26
 70
     0
102
RTVSPropertyOp27
 70
     0
102
RTVSPropertyOp28
 70
     0
102
RTVSPropertyOp29
 70
     0
102
RTVSPropertyOp30
 70
     0
102
RTVSPropertyOp31
 70
     0
102
RTVSPropertyOp32
 70
     0
102
RTVSPropertyOp33
 70
     0
102
RTVSPropertyOp34
 70
     0
102
RTVSPropertyOp35
 70
     0
102
RTVSPropertyOp36
 70
     0
102
RTVSPropertyOp37
 70
     0
102
RTVSPropertyOp38
 70
     0
102
RTVSPropertyOp39
 70
     0
102
RTVSPropertyOp40
 70
     0
102
RTVSPropertyOp41
 70
     0
102
RTVSPropertyOp42
 70
     0
102
RTVSPropertyOp43
 70
     0
102
RTVSPropertyOp44
 70
     0
102
RTVSPropertyOp45
 70
     0
102
RTVSPropertyOp46
 70
     0
102
RTVSPropertyOp47
 70
     0
102
RTVSPropertyOp48
 70
     0
102
RTVSPropertyOp49
 70
     0
102
RTVSPropertyOp50
 70
     0
102
RTVSPropertyOp51
 70
     0
102
RTVSPropertyOp52
 70
     0
102
RTVSPropertyOp53
 70
     0
102
RTVSPropertyOp54
 70
     0
102
RTVSPropertyOp55
 70
     0
102
RTVSPropertyOp56
 70
     0
102
RTVSPropertyOp57
 70
     0
102
RTVSPost2010Prop28
280
     0
102
RTVSPost2010PropOp28
 70
     0
102
RTVSPost2010Prop29
280
     1
102
RTVSPost2010PropOp29
 70
     0
102
RTVSPost2010Prop30
280
     1
102
RTVSPost2010PropOp30
 70
     0
102
RTVSPost2010Prop31
280
     0
102
RTVSPost2010PropOp31
 70
     0
102
RTVSPost2010Prop32
280
     0
102
RTVSPost2010PropOp32
 70
     0
102
RTVSPost2010Prop33
280
     0
102
RTVSPost2010PropOp33
 70
     0
102
RTVSPost2010Prop34
280
     0
102
RTVSPost2010PropOp34
 70
     0
102
RTVSPost2010Prop35
280
     0
102
RTVSPost2010PropOp35
 70
     0
102
RTVSPost2010Prop36
280
     0
102
RTVSPost2010PropOp36
 70
     0
102
RTVSPost2010Prop37
 90
       50
102
RTVSPost2010PropOp37
 70
     0
102
RTVSPost2010Prop38
140
0.0
102
RTVSPost2010PropOp38
 70
     0
102
RTVSPost2010Prop39
140
1.0
102
RTVSPost2010PropOp39
 70
     0
102
RTVSPost2010Prop40
 90
        0
102
RTVSPost2010PropOp40
 70
     0
102
RTVSPost2010Prop41ColorIndex
 90
       18
102
RTVSPost2010Prop41ColorRGB
 90
        0
102
RTVSPost2010PropOp41
 70
     0
102
RTVSPost2010Prop42
 90
       50
102
RTVSPost2010PropOp42
 70
     0
102
RTVSPost2010Prop43
 90
        3
102
RTVSPost2010PropOp43
 70
     0
102
RTVSPost2010Prop44ColorIndex
 90
        5
102
RTVSPost2010Prop44ColorRGB
 90
      255
102
RTVSPost2010PropOp44
 70
     0
102
RTVSPost2010Prop45
280
     0
102
RTVSPost2010PropOp45
 70
     0
102
RTVSPost2010Prop46
 90
       50
102
RTVSPost2010PropOp46
 70
     0
102
RTVSPost2010Prop47
 90
       50
102
RTVSPost2010PropOp47
 70
     0
102
RTVSPost2010Prop48
 90
       50
102
RTVSPost2010PropOp48
 70
     0
102
RTVSPost2010Prop49
280
     0
102
RTVSPost2010PropOp49
 70
     0
102
RTVSPost2010Prop50
 90
       50
102
RTVSPost2010PropOp50
 70
     0
102
RTVSPost2010Prop51ColorIndex
 90
      256
102
RTVSPost2010Prop51ColorRGB
 90
-16777216
102
RTVSPost2010PropOp51
 70
     0
102
RTVSPost2010Prop52
140
1.0
102
RTVSPost2010PropOp52
 70
     0
102
RTVSPost2010Prop53
 90
        2
102
RTVSPost2010PropOp53
 70
     0
102
RTVSPost2010Prop54
  1
strokes_ogs.tif
102
RTVSPost2010PropOp54
 70
     0
102
RTVSPost2010Prop55
280
     0
102
RTVSPost2010PropOp55
 70
     0
102
RTVSPost2010Prop56
140
1.0
102
RTVSPost2010PropOp56
 70
     0
102
RTVSPost2010Prop57
140
1.0
102
RTVSPost2010PropOp57
 70
     0
  0
XRECORD
  5
431
102
{ACAD_REACTORS
330
430
102
}
330
430
100
AcDbXrecord
280
     1
102
RTVSPropertyOp0
 70
     1
102
RTVSPropertyOp1
 70
     1
102
RTVSPropertyOp2
 70
     1
102
RTVSPropertyOp3
 70
     1
102
RTVSPropertyOp4
 70
     1
102
RTVSPropertyOp5
 70
     1
102
RTVSPropertyOp6
 70
     1
102
RTVSPropertyOp7
 70
     1
102
RTVSPropertyOp8
 70
     1
102
RTVSPropertyOp9
 70
     1
102
RTVSPropertyOp10
 70
     1
102
RTVSPropertyOp11
 70
     1
102
RTVSPropertyOp12
 70
     1
102
RTVSPropertyOp13
 70
     1
102
RTVSPropertyOp14
 70
     1
102
RTVSPropertyOp15
 70
     1
102
RTVSPropertyOp16
 70
     1
102
RTVSPropertyOp17
 70
     1
102
RTVSPropertyOp18
 70
     1
102
RTVSPropertyOp19
 70
     1
102
RTVSPropertyOp20
 70
     1
102
RTVSPropertyOp21
 70
     1
102
RTVSPropertyOp22
 70
     1
102
RTVSPropertyOp23
 70
     1
102
RTVSPropertyOp24
 70
     1
102
RTVSPropertyOp25
 70
     1
102
RTVSPropertyOp26
 70
     1
102
RTVSPropertyOp27
 70
     1
102
RTVSPropertyOp28
 70
     1
102
RTVSPropertyOp29
 70
     1
102
RTVSPropertyOp30
 70
     1
102
RTVSPropertyOp31
 70
     1
102
RTVSPropertyOp32
 70
     1
102
RTVSPropertyOp33
 70
     1
102
RTVSPropertyOp34
 70
     1
102
RTVSPropertyOp35
 70
     1
102
RTVSPropertyOp36
 70
     1
102
RTVSPropertyOp37
 70
     1
102
RTVSPropertyOp38
 70
     1
102
RTVSPropertyOp39
 70
     1
102
RTVSPropertyOp40
 70
     1
102
RTVSPropertyOp41
 70
     1
102
RTVSPropertyOp42
 70
     1
102
RTVSPropertyOp43
 70
     1
102
RTVSPropertyOp44
 70
     1
102
RTVSPropertyOp45
 70
     1
102
RTVSPropertyOp46
 70
     1
102
RTVSPropertyOp47
 70
     1
102
RTVSPropertyOp48
 70
     1
102
RTVSPropertyOp49
 70
     1
102
RTVSPropertyOp50
 70
     1
102
RTVSPropertyOp51
 70
     0
102
RTVSPropertyOp52
 70
     0
102
RTVSPropertyOp53
 70
     1
102
RTVSPropertyOp54
 70
     1
102
RTVSPropertyOp55
 70
     1
102
RTVSPropertyOp56
 70
     1
102
RTVSPropertyOp57
 70
     1
102
RTVSPost2010Prop28
280
     0
102
RTVSPost2010PropOp28
 70
     1
102
RTVSPost2010Prop29
280
     1
102
RTVSPost2010PropOp29
 70
     1
102
RTVSPost2010Prop30
280
     1
102
RTVSPost2010PropOp30
 70
     1
102
RTVSPost2010Prop31
280
     0
102
RTVSPost2010PropOp31
 70
     1
102
RTVSPost2010Prop32
280
     0
102
RTVSPost2010PropOp32
 70
     1
102
RTVSPost2010Prop33
280
     0
102
RTVSPost2010PropOp33
 70
     1
102
RTVSPost2010Prop34
280
     0
102
RTVSPost2010PropOp34
 70
     1
102
RTVSPost2010Prop35
280
     0
102
RTVSPost2010PropOp35
 70
     1
102
RTVSPost2010Prop36
280
     0
102
RTVSPost2010PropOp36
 70
     1
102
RTVSPost2010Prop37
 90
       50
102
RTVSPost2010PropOp37
 70
     1
102
RTVSPost2010Prop38
140
0.0
102
RTVSPost2010PropOp38
 70
     1
102
RTVSPost2010Prop39
140
1.0
102
RTVSPost2010PropOp39
 70
     1
102
RTVSPost2010Prop40
 90
        0
102
RTVSPost2010PropOp40
 70
     1
102
RTVSPost2010Prop41ColorIndex
 90
       18
102
RTVSPost2010Prop41ColorRGB
 90
        0
102
RTVSPost2010PropOp41
 70
     1
102
RTVSPost2010Prop42
 90
       50
102
RTVSPost2010PropOp42
 70
     1
102
RTVSPost2010Prop43
 90
        3
102
RTVSPost2010PropOp43
 70
     1
102
RTVSPost2010Prop44ColorIndex
 90
        5
102
RTVSPost2010Prop44ColorRGB
 90
      255
102
RTVSPost2010PropOp44
 70
     1
102
RTVSPost2010Prop45
280
     0
102
RTVSPost2010PropOp45
 70
     1
102
RTVSPost2010Prop46
 90
       50
102
RTVSPost2010PropOp46
 70
     1
102
RTVSPost2010Prop47
 90
       50
102
RTVSPost2010PropOp47
 70
     1
102
RTVSPost2010Prop48
 90
       50
102
RTVSPost2010PropOp48
 70
     1
102
RTVSPost2010Prop49
280
     0
102
RTVSPost2010PropOp49
 70
     1
102
RTVSPost2010Prop50
 90
       50
102
RTVSPost2010PropOp50
 70
     1
102
RTVSPost2010Prop51ColorIndex
 90
      256
102
RTVSPost2010Prop51ColorRGB
 90
-16777216
102
RTVSPost2010PropOp51
 70
     0
102
RTVSPost2010Prop52
140
1.0
102
RTVSPost2010PropOp52
 70
     0
102
RTVSPost2010Prop53
 90
        2
102
RTVSPost2010PropOp53
 70
     1
102
RTVSPost2010Prop54
  1
strokes_ogs.tif
102
RTVSPost2010PropOp54
 70
     1
102
RTVSPost2010Prop55
280
     0
102
RTVSPost2010PropOp55
 70
     1
102
RTVSPost2010Prop56
140
1.0
102
RTVSPost2010PropOp56
 70
     1
102
RTVSPost2010Prop57
140
1.0
102
RTVSPost2010PropOp57
 70
     1
  0
XRECORD
  5
439
102
{ACAD_REACTORS
330
438
102
}
330
438
100
AcDbXrecord
280
     1
102
RTVSPropertyOp0
 70
     0
102
RTVSPropertyOp1
 70
     0
102
RTVSPropertyOp2
 70
     0
102
RTVSPropertyOp3
 70
     0
102
RTVSPropertyOp4
 70
     0
102
RTVSPropertyOp5
 70
     0
102
RTVSPropertyOp6
 70
     0
102
RTVSPropertyOp7
 70
     0
102
RTVSPropertyOp8
 70
     0
102
RTVSPropertyOp9
 70
     0
102
RTVSPropertyOp10
 70
     0
102
RTVSPropertyOp11
 70
     0
102
RTVSPropertyOp12
 70
     0
102
RTVSPropertyOp13
 70
     0
102
RTVSPropertyOp14
 70
     2
102
RTVSPropertyOp15
 70
     0
102
RTVSPropertyOp16
 70
     0
102
RTVSPropertyOp17
 70
     0
102
RTVSPropertyOp18
 70
     0
102
RTVSPropertyOp19
 70
     0
102
RTVSPropertyOp20
 70
     0
102
RTVSPropertyOp21
 70
     0
102
RTVSPropertyOp22
 70
     0
102
RTVSPropertyOp23
 70
     0
102
RTVSPropertyOp24
 70
     0
102
RTVSPropertyOp25
 70
     0
102
RTVSPropertyOp26
 70
     0
102
RTVSPropertyOp27
 70
     0
102
RTVSPropertyOp28
 70
     0
102
RTVSPropertyOp29
 70
     0
102
RTVSPropertyOp30
 70
     0
102
RTVSPropertyOp31
 70
     0
102
RTVSPropertyOp32
 70
     0
102
RTVSPropertyOp33
 70
     0
102
RTVSPropertyOp34
 70
     0
102
RTVSPropertyOp35
 70
     0
102
RTVSPropertyOp36
 70
     0
102
RTVSPropertyOp37
 70
     0
102
RTVSPropertyOp38
 70
     0
102
RTVSPropertyOp39
 70
     0
102
RTVSPropertyOp40
 70
     0
102
RTVSPropertyOp41
 70
     0
102
RTVSPropertyOp42
 70
     0
102
RTVSPropertyOp43
 70
     0
102
RTVSPropertyOp44
 70
     0
102
RTVSPropertyOp45
 70
     0
102
RTVSPropertyOp46
 70
     0
102
RTVSPropertyOp47
 70
     0
102
RTVSPropertyOp48
 70
     0
102
RTVSPropertyOp49
 70
     0
102
RTVSPropertyOp50
 70
     0
102
RTVSPropertyOp51
 70
     0
102
RTVSPropertyOp52
 70
     0
102
RTVSPropertyOp53
 70
     0
102
RTVSPropertyOp54
 70
     0
102
RTVSPropertyOp55
 70
     0
102
RTVSPropertyOp56
 70
     0
102
RTVSPropertyOp57
 70
     0
102
RTVSPost2010Prop28
280
     0
102
RTVSPost2010PropOp28
 70
     0
102
RTVSPost2010Prop29
280
     1
102
RTVSPost2010PropOp29
 70
     0
102
RTVSPost2010Prop30
280
     1
102
RTVSPost2010PropOp30
 70
     0
102
RTVSPost2010Prop31
280
     0
102
RTVSPost2010PropOp31
 70
     0
102
RTVSPost2010Prop32
280
     0
102
RTVSPost2010PropOp32
 70
     0
102
RTVSPost2010Prop33
280
     0
102
RTVSPost2010PropOp33
 70
     0
102
RTVSPost2010Prop34
280
     0
102
RTVSPost2010PropOp34
 70
     0
102
RTVSPost2010Prop35
280
     0
102
RTVSPost2010PropOp35
 70
     0
102
RTVSPost2010Prop36
280
     0
102
RTVSPost2010PropOp36
 70
     0
102
RTVSPost2010Prop37
 90
       50
102
RTVSPost2010PropOp37
 70
     0
102
RTVSPost2010Prop38
140
0.0
102
RTVSPost2010PropOp38
 70
     0
102
RTVSPost2010Prop39
140
1.0
102
RTVSPost2010PropOp39
 70
     0
102
RTVSPost2010Prop40
 90
        0
102
RTVSPost2010PropOp40
 70
     0
102
RTVSPost2010Prop41ColorIndex
 90
       18
102
RTVSPost2010Prop41ColorRGB
 90
        0
102
RTVSPost2010PropOp41
 70
     0
102
RTVSPost2010Prop42
 90
       50
102
RTVSPost2010PropOp42
 70
     0
102
RTVSPost2010Prop43
 90
        3
102
RTVSPost2010PropOp43
 70
     0
102
RTVSPost2010Prop44ColorIndex
 90
        5
102
RTVSPost2010Prop44ColorRGB
 90
      255
102
RTVSPost2010PropOp44
 70
     0
102
RTVSPost2010Prop45
280
     0
102
RTVSPost2010PropOp45
 70
     0
102
RTVSPost2010Prop46
 90
       50
102
RTVSPost2010PropOp46
 70
     0
102
RTVSPost2010Prop47
 90
       50
102
RTVSPost2010PropOp47
 70
     0
102
RTVSPost2010Prop48
 90
       50
102
RTVSPost2010PropOp48
 70
     0
102
RTVSPost2010Prop49
280
     0
102
RTVSPost2010PropOp49
 70
     0
102
RTVSPost2010Prop50
 90
       50
102
RTVSPost2010PropOp50
 70
     0
102
RTVSPost2010Prop51ColorIndex
 90
      256
102
RTVSPost2010Prop51ColorRGB
 90
-16777216
102
RTVSPost2010PropOp51
 70
     0
102
RTVSPost2010Prop52
140
1.0
102
RTVSPost2010PropOp52
 70
     0
102
RTVSPost2010Prop53
 90
        2
102
RTVSPost2010PropOp53
 70
     0
102
RTVSPost2010Prop54
  1
strokes_ogs.tif
102
RTVSPost2010PropOp54
 70
     0
102
RTVSPost2010Prop55
280
     0
102
RTVSPost2010PropOp55
 70
     0
102
RTVSPost2010Prop56
140
1.0
102
RTVSPost2010PropOp56
 70
     0
102
RTVSPost2010Prop57
140
1.0
102
RTVSPost2010PropOp57
 70
     0
  0
XRECORD
  5
427
102
{ACAD_REACTORS
330
426
102
}
330
426
100
AcDbXrecord
280
     1
102
RTVSPropertyOp0
 70
     1
102
RTVSPropertyOp1
 70
     1
102
RTVSPropertyOp2
 70
     1
102
RTVSPropertyOp3
 70
     1
102
RTVSPropertyOp4
 70
     1
102
RTVSPropertyOp5
 70
     1
102
RTVSPropertyOp6
 70
     1
102
RTVSPropertyOp7
 70
     1
102
RTVSPropertyOp8
 70
     1
102
RTVSPropertyOp9
 70
     1
102
RTVSPropertyOp10
 70
     1
102
RTVSPropertyOp11
 70
     1
102
RTVSPropertyOp12
 70
     1
102
RTVSPropertyOp13
 70
     1
102
RTVSPropertyOp14
 70
     1
102
RTVSPropertyOp15
 70
     1
102
RTVSPropertyOp16
 70
     1
102
RTVSPropertyOp17
 70
     1
102
RTVSPropertyOp18
 70
     1
102
RTVSPropertyOp19
 70
     1
102
RTVSPropertyOp20
 70
     1
102
RTVSPropertyOp21
 70
     1
102
RTVSPropertyOp22
 70
     1
102
RTVSPropertyOp23
 70
     1
102
RTVSPropertyOp24
 70
     1
102
RTVSPropertyOp25
 70
     1
102
RTVSPropertyOp26
 70
     1
102
RTVSPropertyOp27
 70
     1
102
RTVSPropertyOp28
 70
     1
102
RTVSPropertyOp29
 70
     1
102
RTVSPropertyOp30
 70
     1
102
RTVSPropertyOp31
 70
     1
102
RTVSPropertyOp32
 70
     1
102
RTVSPropertyOp33
 70
     1
102
RTVSPropertyOp34
 70
     1
102
RTVSPropertyOp35
 70
     1
102
RTVSPropertyOp36
 70
     1
102
RTVSPropertyOp37
 70
     1
102
RTVSPropertyOp38
 70
     1
102
RTVSPropertyOp39
 70
     1
102
RTVSPropertyOp40
 70
     1
102
RTVSPropertyOp41
 70
     1
102
RTVSPropertyOp42
 70
     1
102
RTVSPropertyOp43
 70
     1
102
RTVSPropertyOp44
 70
     1
102
RTVSPropertyOp45
 70
     1
102
RTVSPropertyOp46
 70
     1
102
RTVSPropertyOp47
 70
     1
102
RTVSPropertyOp48
 70
     1
102
RTVSPropertyOp49
 70
     1
102
RTVSPropertyOp50
 70
     1
102
RTVSPropertyOp51
 70
     0
102
RTVSPropertyOp52
 70
     0
102
RTVSPropertyOp53
 70
     1
102
RTVSPropertyOp54
 70
     1
102
RTVSPropertyOp55
 70
     1
102
RTVSPropertyOp56
 70
     1
102
RTVSPropertyOp57
 70
     1
102
RTVSPost2010Prop28
280
     0
102
RTVSPost2010PropOp28
 70
     1
102
RTVSPost2010Prop29
280
     1
102
RTVSPost2010PropOp29
 70
     1
102
RTVSPost2010Prop30
280
     1
102
RTVSPost2010PropOp30
 70
     1
102
RTVSPost2010Prop31
280
     0
102
RTVSPost2010PropOp31
 70
     1
102
RTVSPost2010Prop32
280
     0
102
RTVSPost2010PropOp32
 70
     1
102
RTVSPost2010Prop33
280
     0
102
RTVSPost2010PropOp33
 70
     1
102
RTVSPost2010Prop34
280
     0
102
RTVSPost2010PropOp34
 70
     1
102
RTVSPost2010Prop35
280
     0
102
RTVSPost2010PropOp35
 70
     1
102
RTVSPost2010Prop36
280
     0
102
RTVSPost2010PropOp36
 70
     1
102
RTVSPost2010Prop37
 90
       50
102
RTVSPost2010PropOp37
 70
     1
102
RTVSPost2010Prop38
140
0.0
102
RTVSPost2010PropOp38
 70
     1
102
RTVSPost2010Prop39
140
1.0
102
RTVSPost2010PropOp39
 70
     1
102
RTVSPost2010Prop40
 90
        0
102
RTVSPost2010PropOp40
 70
     1
102
RTVSPost2010Prop41ColorIndex
 90
       18
102
RTVSPost2010Prop41ColorRGB
 90
        0
102
RTVSPost2010PropOp41
 70
     1
102
RTVSPost2010Prop42
 90
       50
102
RTVSPost2010PropOp42
 70
     1
102
RTVSPost2010Prop43
 90
        3
102
RTVSPost2010PropOp43
 70
     1
102
RTVSPost2010Prop44ColorIndex
 90
        5
102
RTVSPost2010Prop44ColorRGB
 90
      255
102
RTVSPost2010PropOp44
 70
     1
102
RTVSPost2010Prop45
280
     0
102
RTVSPost2010PropOp45
 70
     1
102
RTVSPost2010Prop46
 90
       50
102
RTVSPost2010PropOp46
 70
     1
102
RTVSPost2010Prop47
 90
       50
102
RTVSPost2010PropOp47
 70
     1
102
RTVSPost2010Prop48
 90
       50
102
RTVSPost2010PropOp48
 70
     1
102
RTVSPost2010Prop49
280
     0
102
RTVSPost2010PropOp49
 70
     1
102
RTVSPost2010Prop50
 90
       50
102
RTVSPost2010PropOp50
 70
     1
102
RTVSPost2010Prop51ColorIndex
 90
      256
102
RTVSPost2010Prop51ColorRGB
 90
-16777216
102
RTVSPost2010PropOp51
 70
     0
102
RTVSPost2010Prop52
140
1.0
102
RTVSPost2010PropOp52
 70
     0
102
RTVSPost2010Prop53
 90
        2
102
RTVSPost2010PropOp53
 70
     1
102
RTVSPost2010Prop54
  1
strokes_ogs.tif
102
RTVSPost2010PropOp54
 70
     1
102
RTVSPost2010Prop55
280
     0
102
RTVSPost2010PropOp55
 70
     1
102
RTVSPost2010Prop56
140
1.0
102
RTVSPost2010PropOp56
 70
     1
102
RTVSPost2010Prop57
140
1.0
102
RTVSPost2010PropOp57
 70
     1
  0
XRECORD
  5
445
102
{ACAD_REACTORS
330
444
102
}
330
444
100
AcDbXrecord
280
     1
102
RTVSPropertyOp0
 70
     1
102
RTVSPropertyOp1
 70
     1
102
RTVSPropertyOp2
 70
     1
102
RTVSPropertyOp3
 70
     1
102
RTVSPropertyOp4
 70
     1
102
RTVSPropertyOp5
 70
     1
102
RTVSPropertyOp6
 70
     1
102
RTVSPropertyOp7
 70
     1
102
RTVSPropertyOp8
 70
     1
102
RTVSPropertyOp9
 70
     1
102
RTVSPropertyOp10
 70
     1
102
RTVSPropertyOp11
 70
     1
102
RTVSPropertyOp12
 70
     1
102
RTVSPropertyOp13
 70
     1
102
RTVSPropertyOp14
 70
     1
102
RTVSPropertyOp15
 70
     1
102
RTVSPropertyOp16
 70
     1
102
RTVSPropertyOp17
 70
     1
102
RTVSPropertyOp18
 70
     1
102
RTVSPropertyOp19
 70
     1
102
RTVSPropertyOp20
 70
     1
102
RTVSPropertyOp21
 70
     1
102
RTVSPropertyOp22
 70
     1
102
RTVSPropertyOp23
 70
     1
102
RTVSPropertyOp24
 70
     1
102
RTVSPropertyOp25
 70
     1
102
RTVSPropertyOp26
 70
     1
102
RTVSPropertyOp27
 70
     1
102
RTVSPropertyOp28
 70
     1
102
RTVSPropertyOp29
 70
     1
102
RTVSPropertyOp30
 70
     1
102
RTVSPropertyOp31
 70
     1
102
RTVSPropertyOp32
 70
     1
102
RTVSPropertyOp33
 70
     1
102
RTVSPropertyOp34
 70
     1
102
RTVSPropertyOp35
 70
     1
102
RTVSPropertyOp36
 70
     1
102
RTVSPropertyOp37
 70
     1
102
RTVSPropertyOp38
 70
     1
102
RTVSPropertyOp39
 70
     1
102
RTVSPropertyOp40
 70
     1
102
RTVSPropertyOp41
 70
     1
102
RTVSPropertyOp42
 70
     1
102
RTVSPropertyOp43
 70
     1
102
RTVSPropertyOp44
 70
     1
102
RTVSPropertyOp45
 70
     1
102
RTVSPropertyOp46
 70
     1
102
RTVSPropertyOp47
 70
     1
102
RTVSPropertyOp48
 70
     1
102
RTVSPropertyOp49
 70
     1
102
RTVSPropertyOp50
 70
     1
102
RTVSPropertyOp51
 70
     0
102
RTVSPropertyOp52
 70
     0
102
RTVSPropertyOp53
 70
     1
102
RTVSPropertyOp54
 70
     1
102
RTVSPropertyOp55
 70
     1
102
RTVSPropertyOp56
 70
     1
102
RTVSPropertyOp57
 70
     1
102
RTVSPost2010Prop28
280
     0
102
RTVSPost2010PropOp28
 70
     1
102
RTVSPost2010Prop29
280
     1
102
RTVSPost2010PropOp29
 70
     1
102
RTVSPost2010Prop30
280
     1
102
RTVSPost2010PropOp30
 70
     1
102
RTVSPost2010Prop31
280
     0
102
RTVSPost2010PropOp31
 70
     1
102
RTVSPost2010Prop32
280
     0
102
RTVSPost2010PropOp32
 70
     1
102
RTVSPost2010Prop33
280
     0
102
RTVSPost2010PropOp33
 70
     1
102
RTVSPost2010Prop34
280
     0
102
RTVSPost2010PropOp34
 70
     1
102
RTVSPost2010Prop35
280
     0
102
RTVSPost2010PropOp35
 70
     1
102
RTVSPost2010Prop36
280
     0
102
RTVSPost2010PropOp36
 70
     1
102
RTVSPost2010Prop37
 90
       50
102
RTVSPost2010PropOp37
 70
     1
102
RTVSPost2010Prop38
140
0.0
102
RTVSPost2010PropOp38
 70
     1
102
RTVSPost2010Prop39
140
1.0
102
RTVSPost2010PropOp39
 70
     1
102
RTVSPost2010Prop40
 90
        0
102
RTVSPost2010PropOp40
 70
     1
102
RTVSPost2010Prop41ColorIndex
 90
       18
102
RTVSPost2010Prop41ColorRGB
 90
        0
102
RTVSPost2010PropOp41
 70
     1
102
RTVSPost2010Prop42
 90
       50
102
RTVSPost2010PropOp42
 70
     1
102
RTVSPost2010Prop43
 90
        3
102
RTVSPost2010PropOp43
 70
     1
102
RTVSPost2010Prop44ColorIndex
 90
        5
102
RTVSPost2010Prop44ColorRGB
 90
      255
102
RTVSPost2010PropOp44
 70
     1
102
RTVSPost2010Prop45
280
     0
102
RTVSPost2010PropOp45
 70
     1
102
RTVSPost2010Prop46
 90
       50
102
RTVSPost2010PropOp46
 70
     1
102
RTVSPost2010Prop47
 90
       50
102
RTVSPost2010PropOp47
 70
     1
102
RTVSPost2010Prop48
 90
       50
102
RTVSPost2010PropOp48
 70
     1
102
RTVSPost2010Prop49
280
     0
102
RTVSPost2010PropOp49
 70
     1
102
RTVSPost2010Prop50
 90
       50
102
RTVSPost2010PropOp50
 70
     1
102
RTVSPost2010Prop51ColorIndex
 90
      256
102
RTVSPost2010Prop51ColorRGB
 90
-16777216
102
RTVSPost2010PropOp51
 70
     0
102
RTVSPost2010Prop52
140
1.0
102
RTVSPost2010PropOp52
 70
     0
102
RTVSPost2010Prop53
 90
        2
102
RTVSPost2010PropOp53
 70
     1
102
RTVSPost2010Prop54
  1
strokes_ogs.tif
102
RTVSPost2010PropOp54
 70
     1
102
RTVSPost2010Prop55
280
     0
102
RTVSPost2010PropOp55
 70
     1
102
RTVSPost2010Prop56
140
1.0
102
RTVSPost2010PropOp56
 70
     1
102
RTVSPost2010Prop57
140
1.0
102
RTVSPost2010PropOp57
 70
     1
  0
XRECORD
  5
443
102
{ACAD_REACTORS
330
442
102
}
330
442
100
AcDbXrecord
280
     1
102
RTVSPropertyOp0
 70
     1
102
RTVSPropertyOp1
 70
     1
102
RTVSPropertyOp2
 70
     1
102
RTVSPropertyOp3
 70
     1
102
RTVSPropertyOp4
 70
     1
102
RTVSPropertyOp5
 70
     1
102
RTVSPropertyOp6
 70
     1
102
RTVSPropertyOp7
 70
     1
102
RTVSPropertyOp8
 70
     1
102
RTVSPropertyOp9
 70
     1
102
RTVSPropertyOp10
 70
     1
102
RTVSPropertyOp11
 70
     1
102
RTVSPropertyOp12
 70
     1
102
RTVSPropertyOp13
 70
     1
102
RTVSPropertyOp14
 70
     1
102
RTVSPropertyOp15
 70
     1
102
RTVSPropertyOp16
 70
     1
102
RTVSPropertyOp17
 70
     1
102
RTVSPropertyOp18
 70
     1
102
RTVSPropertyOp19
 70
     1
102
RTVSPropertyOp20
 70
     1
102
RTVSPropertyOp21
 70
     1
102
RTVSPropertyOp22
 70
     1
102
RTVSPropertyOp23
 70
     1
102
RTVSPropertyOp24
 70
     1
102
RTVSPropertyOp25
 70
     1
102
RTVSPropertyOp26
 70
     1
102
RTVSPropertyOp27
 70
     1
102
RTVSPropertyOp28
 70
     1
102
RTVSPropertyOp29
 70
     1
102
RTVSPropertyOp30
 70
     1
102
RTVSPropertyOp31
 70
     1
102
RTVSPropertyOp32
 70
     1
102
RTVSPropertyOp33
 70
     1
102
RTVSPropertyOp34
 70
     1
102
RTVSPropertyOp35
 70
     1
102
RTVSPropertyOp36
 70
     1
102
RTVSPropertyOp37
 70
     1
102
RTVSPropertyOp38
 70
     1
102
RTVSPropertyOp39
 70
     1
102
RTVSPropertyOp40
 70
     1
102
RTVSPropertyOp41
 70
     1
102
RTVSPropertyOp42
 70
     1
102
RTVSPropertyOp43
 70
     1
102
RTVSPropertyOp44
 70
     1
102
RTVSPropertyOp45
 70
     1
102
RTVSPropertyOp46
 70
     1
102
RTVSPropertyOp47
 70
     1
102
RTVSPropertyOp48
 70
     1
102
RTVSPropertyOp49
 70
     1
102
RTVSPropertyOp50
 70
     1
102
RTVSPropertyOp51
 70
     0
102
RTVSPropertyOp52
 70
     0
102
RTVSPropertyOp53
 70
     1
102
RTVSPropertyOp54
 70
     1
102
RTVSPropertyOp55
 70
     1
102
RTVSPropertyOp56
 70
     1
102
RTVSPropertyOp57
 70
     1
102
RTVSPost2010Prop28
280
     0
102
RTVSPost2010PropOp28
 70
     1
102
RTVSPost2010Prop29
280
     1
102
RTVSPost2010PropOp29
 70
     1
102
RTVSPost2010Prop30
280
     1
102
RTVSPost2010PropOp30
 70
     1
102
RTVSPost2010Prop31
280
     0
102
RTVSPost2010PropOp31
 70
     1
102
RTVSPost2010Prop32
280
     0
102
RTVSPost2010PropOp32
 70
     1
102
RTVSPost2010Prop33
280
     0
102
RTVSPost2010PropOp33
 70
     1
102
RTVSPost2010Prop34
280
     0
102
RTVSPost2010PropOp34
 70
     1
102
RTVSPost2010Prop35
280
     0
102
RTVSPost2010PropOp35
 70
     1
102
RTVSPost2010Prop36
280
     0
102
RTVSPost2010PropOp36
 70
     1
102
RTVSPost2010Prop37
 90
       50
102
RTVSPost2010PropOp37
 70
     1
102
RTVSPost2010Prop38
140
0.0
102
RTVSPost2010PropOp38
 70
     1
102
RTVSPost2010Prop39
140
1.0
102
RTVSPost2010PropOp39
 70
     1
102
RTVSPost2010Prop40
 90
        0
102
RTVSPost2010PropOp40
 70
     1
102
RTVSPost2010Prop41ColorIndex
 90
       18
102
RTVSPost2010Prop41ColorRGB
 90
        0
102
RTVSPost2010PropOp41
 70
     1
102
RTVSPost2010Prop42
 90
       50
102
RTVSPost2010PropOp42
 70
     1
102
RTVSPost2010Prop43
 90
        3
102
RTVSPost2010PropOp43
 70
     1
102
RTVSPost2010Prop44ColorIndex
 90
        5
102
RTVSPost2010Prop44ColorRGB
 90
      255
102
RTVSPost2010PropOp44
 70
     1
102
RTVSPost2010Prop45
280
     0
102
RTVSPost2010PropOp45
 70
     1
102
RTVSPost2010Prop46
 90
       50
102
RTVSPost2010PropOp46
 70
     1
102
RTVSPost2010Prop47
 90
       50
102
RTVSPost2010PropOp47
 70
     1
102
RTVSPost2010Prop48
 90
       50
102
RTVSPost2010PropOp48
 70
     1
102
RTVSPost2010Prop49
280
     0
102
RTVSPost2010PropOp49
 70
     1
102
RTVSPost2010Prop50
 90
       50
102
RTVSPost2010PropOp50
 70
     1
102
RTVSPost2010Prop51ColorIndex
 90
      256
102
RTVSPost2010Prop51ColorRGB
 90
-16777216
102
RTVSPost2010PropOp51
 70
     0
102
RTVSPost2010Prop52
140
1.0
102
RTVSPost2010PropOp52
 70
     0
102
RTVSPost2010Prop53
 90
        2
102
RTVSPost2010PropOp53
 70
     1
102
RTVSPost2010Prop54
  1
strokes_ogs.tif
102
RTVSPost2010PropOp54
 70
     1
102
RTVSPost2010Prop55
280
     0
102
RTVSPost2010PropOp55
 70
     1
102
RTVSPost2010Prop56
140
1.0
102
RTVSPost2010PropOp56
 70
     1
102
RTVSPost2010Prop57
140
1.0
102
RTVSPost2010PropOp57
 70
     1
  0
XRECORD
  5
43D
102
{ACAD_REACTORS
330
43C
102
}
330
43C
100
AcDbXrecord
280
     1
102
RTVSPropertyOp0
 70
     1
102
RTVSPropertyOp1
 70
     1
102
RTVSPropertyOp2
 70
     1
102
RTVSPropertyOp3
 70
     1
102
RTVSPropertyOp4
 70
     1
102
RTVSPropertyOp5
 70
     1
102
RTVSPropertyOp6
 70
     1
102
RTVSPropertyOp7
 70
     1
102
RTVSPropertyOp8
 70
     1
102
RTVSPropertyOp9
 70
     1
102
RTVSPropertyOp10
 70
     1
102
RTVSPropertyOp11
 70
     1
102
RTVSPropertyOp12
 70
     1
102
RTVSPropertyOp13
 70
     1
102
RTVSPropertyOp14
 70
     1
102
RTVSPropertyOp15
 70
     1
102
RTVSPropertyOp16
 70
     1
102
RTVSPropertyOp17
 70
     1
102
RTVSPropertyOp18
 70
     1
102
RTVSPropertyOp19
 70
     1
102
RTVSPropertyOp20
 70
     1
102
RTVSPropertyOp21
 70
     1
102
RTVSPropertyOp22
 70
     1
102
RTVSPropertyOp23
 70
     1
102
RTVSPropertyOp24
 70
     1
102
RTVSPropertyOp25
 70
     1
102
RTVSPropertyOp26
 70
     1
102
RTVSPropertyOp27
 70
     1
102
RTVSPropertyOp28
 70
     1
102
RTVSPropertyOp29
 70
     1
102
RTVSPropertyOp30
 70
     1
102
RTVSPropertyOp31
 70
     1
102
RTVSPropertyOp32
 70
     1
102
RTVSPropertyOp33
 70
     1
102
RTVSPropertyOp34
 70
     1
102
RTVSPropertyOp35
 70
     1
102
RTVSPropertyOp36
 70
     1
102
RTVSPropertyOp37
 70
     1
102
RTVSPropertyOp38
 70
     1
102
RTVSPropertyOp39
 70
     1
102
RTVSPropertyOp40
 70
     1
102
RTVSPropertyOp41
 70
     1
102
RTVSPropertyOp42
 70
     1
102
RTVSPropertyOp43
 70
     1
102
RTVSPropertyOp44
 70
     1
102
RTVSPropertyOp45
 70
     1
102
RTVSPropertyOp46
 70
     1
102
RTVSPropertyOp47
 70
     1
102
RTVSPropertyOp48
 70
     1
102
RTVSPropertyOp49
 70
     1
102
RTVSPropertyOp50
 70
     1
102
RTVSPropertyOp51
 70
     0
102
RTVSPropertyOp52
 70
     0
102
RTVSPropertyOp53
 70
     1
102
RTVSPropertyOp54
 70
     1
102
RTVSPropertyOp55
 70
     1
102
RTVSPropertyOp56
 70
     1
102
RTVSPropertyOp57
 70
     1
102
RTVSPost2010Prop28
280
     0
102
RTVSPost2010PropOp28
 70
     1
102
RTVSPost2010Prop29
280
     1
102
RTVSPost2010PropOp29
 70
     1
102
RTVSPost2010Prop30
280
     1
102
RTVSPost2010PropOp30
 70
     1
102
RTVSPost2010Prop31
280
     0
102
RTVSPost2010PropOp31
 70
     1
102
RTVSPost2010Prop32
280
     0
102
RTVSPost2010PropOp32
 70
     1
102
RTVSPost2010Prop33
280
     0
102
RTVSPost2010PropOp33
 70
     1
102
RTVSPost2010Prop34
280
     0
102
RTVSPost2010PropOp34
 70
     1
102
RTVSPost2010Prop35
280
     0
102
RTVSPost2010PropOp35
 70
     1
102
RTVSPost2010Prop36
280
     0
102
RTVSPost2010PropOp36
 70
     1
102
RTVSPost2010Prop37
 90
       50
102
RTVSPost2010PropOp37
 70
     1
102
RTVSPost2010Prop38
140
0.0
102
RTVSPost2010PropOp38
 70
     1
102
RTVSPost2010Prop39
140
1.0
102
RTVSPost2010PropOp39
 70
     1
102
RTVSPost2010Prop40
 90
        0
102
RTVSPost2010PropOp40
 70
     1
102
RTVSPost2010Prop41ColorIndex
 90
       18
102
RTVSPost2010Prop41ColorRGB
 90
        0
102
RTVSPost2010PropOp41
 70
     1
102
RTVSPost2010Prop42
 90
       50
102
RTVSPost2010PropOp42
 70
     1
102
RTVSPost2010Prop43
 90
        3
102
RTVSPost2010PropOp43
 70
     1
102
RTVSPost2010Prop44ColorIndex
 90
        5
102
RTVSPost2010Prop44ColorRGB
 90
      255
102
RTVSPost2010PropOp44
 70
     1
102
RTVSPost2010Prop45
280
     0
102
RTVSPost2010PropOp45
 70
     1
102
RTVSPost2010Prop46
 90
       50
102
RTVSPost2010PropOp46
 70
     1
102
RTVSPost2010Prop47
 90
       50
102
RTVSPost2010PropOp47
 70
     1
102
RTVSPost2010Prop48
 90
       50
102
RTVSPost2010PropOp48
 70
     1
102
RTVSPost2010Prop49
280
     0
102
RTVSPost2010PropOp49
 70
     1
102
RTVSPost2010Prop50
 90
       50
102
RTVSPost2010PropOp50
 70
     1
102
RTVSPost2010Prop51ColorIndex
 90
      256
102
RTVSPost2010Prop51ColorRGB
 90
-16777216
102
RTVSPost2010PropOp51
 70
     0
102
RTVSPost2010Prop52
140
1.0
102
RTVSPost2010PropOp52
 70
     0
102
RTVSPost2010Prop53
 90
        2
102
RTVSPost2010PropOp53
 70
     1
102
RTVSPost2010Prop54
  1
strokes_ogs.tif
102
RTVSPost2010PropOp54
 70
     1
102
RTVSPost2010Prop55
280
     0
102
RTVSPost2010PropOp55
 70
     1
102
RTVSPost2010Prop56
140
1.0
102
RTVSPost2010PropOp56
 70
     1
102
RTVSPost2010Prop57
140
1.0
102
RTVSPost2010PropOp57
 70
     1
  0
XRECORD
  5
43F
102
{ACAD_REACTORS
330
43E
102
}
330
43E
100
AcDbXrecord
280
     1
102
RTVSPropertyOp0
 70
     1
102
RTVSPropertyOp1
 70
     1
102
RTVSPropertyOp2
 70
     1
102
RTVSPropertyOp3
 70
     1
102
RTVSPropertyOp4
 70
     1
102
RTVSPropertyOp5
 70
     1
102
RTVSPropertyOp6
 70
     1
102
RTVSPropertyOp7
 70
     1
102
RTVSPropertyOp8
 70
     1
102
RTVSPropertyOp9
 70
     1
102
RTVSPropertyOp10
 70
     1
102
RTVSPropertyOp11
 70
     1
102
RTVSPropertyOp12
 70
     1
102
RTVSPropertyOp13
 70
     1
102
RTVSPropertyOp14
 70
     1
102
RTVSPropertyOp15
 70
     1
102
RTVSPropertyOp16
 70
     1
102
RTVSPropertyOp17
 70
     1
102
RTVSPropertyOp18
 70
     1
102
RTVSPropertyOp19
 70
     1
102
RTVSPropertyOp20
 70
     1
102
RTVSPropertyOp21
 70
     1
102
RTVSPropertyOp22
 70
     1
102
RTVSPropertyOp23
 70
     1
102
RTVSPropertyOp24
 70
     1
102
RTVSPropertyOp25
 70
     1
102
RTVSPropertyOp26
 70
     1
102
RTVSPropertyOp27
 70
     1
102
RTVSPropertyOp28
 70
     1
102
RTVSPropertyOp29
 70
     1
102
RTVSPropertyOp30
 70
     1
102
RTVSPropertyOp31
 70
     1
102
RTVSPropertyOp32
 70
     1
102
RTVSPropertyOp33
 70
     1
102
RTVSPropertyOp34
 70
     1
102
RTVSPropertyOp35
 70
     1
102
RTVSPropertyOp36
 70
     1
102
RTVSPropertyOp37
 70
     1
102
RTVSPropertyOp38
 70
     1
102
RTVSPropertyOp39
 70
     1
102
RTVSPropertyOp40
 70
     1
102
RTVSPropertyOp41
 70
     1
102
RTVSPropertyOp42
 70
     1
102
RTVSPropertyOp43
 70
     1
102
RTVSPropertyOp44
 70
     1
102
RTVSPropertyOp45
 70
     1
102
RTVSPropertyOp46
 70
     1
102
RTVSPropertyOp47
 70
     1
102
RTVSPropertyOp48
 70
     1
102
RTVSPropertyOp49
 70
     1
102
RTVSPropertyOp50
 70
     1
102
RTVSPropertyOp51
 70
     0
102
RTVSPropertyOp52
 70
     0
102
RTVSPropertyOp53
 70
     1
102
RTVSPropertyOp54
 70
     1
102
RTVSPropertyOp55
 70
     1
102
RTVSPropertyOp56
 70
     1
102
RTVSPropertyOp57
 70
     1
102
RTVSPost2010Prop28
280
     0
102
RTVSPost2010PropOp28
 70
     1
102
RTVSPost2010Prop29
280
     1
102
RTVSPost2010PropOp29
 70
     1
102
RTVSPost2010Prop30
280
     1
102
RTVSPost2010PropOp30
 70
     1
102
RTVSPost2010Prop31
280
     0
102
RTVSPost2010PropOp31
 70
     1
102
RTVSPost2010Prop32
280
     0
102
RTVSPost2010PropOp32
 70
     1
102
RTVSPost2010Prop33
280
     0
102
RTVSPost2010PropOp33
 70
     1
102
RTVSPost2010Prop34
280
     0
102
RTVSPost2010PropOp34
 70
     1
102
RTVSPost2010Prop35
280
     0
102
RTVSPost2010PropOp35
 70
     1
102
RTVSPost2010Prop36
280
     0
102
RTVSPost2010PropOp36
 70
     1
102
RTVSPost2010Prop37
 90
       50
102
RTVSPost2010PropOp37
 70
     1
102
RTVSPost2010Prop38
140
0.0
102
RTVSPost2010PropOp38
 70
     1
102
RTVSPost2010Prop39
140
1.0
102
RTVSPost2010PropOp39
 70
     1
102
RTVSPost2010Prop40
 90
        0
102
RTVSPost2010PropOp40
 70
     1
102
RTVSPost2010Prop41ColorIndex
 90
       18
102
RTVSPost2010Prop41ColorRGB
 90
        0
102
RTVSPost2010PropOp41
 70
     1
102
RTVSPost2010Prop42
 90
       50
102
RTVSPost2010PropOp42
 70
     1
102
RTVSPost2010Prop43
 90
        3
102
RTVSPost2010PropOp43
 70
     1
102
RTVSPost2010Prop44ColorIndex
 90
        5
102
RTVSPost2010Prop44ColorRGB
 90
      255
102
RTVSPost2010PropOp44
 70
     1
102
RTVSPost2010Prop45
280
     0
102
RTVSPost2010PropOp45
 70
     1
102
RTVSPost2010Prop46
 90
       50
102
RTVSPost2010PropOp46
 70
     1
102
RTVSPost2010Prop47
 90
       50
102
RTVSPost2010PropOp47
 70
     1
102
RTVSPost2010Prop48
 90
       50
102
RTVSPost2010PropOp48
 70
     1
102
RTVSPost2010Prop49
280
     0
102
RTVSPost2010PropOp49
 70
     1
102
RTVSPost2010Prop50
 90
       50
102
RTVSPost2010PropOp50
 70
     1
102
RTVSPost2010Prop51ColorIndex
 90
      256
102
RTVSPost2010Prop51ColorRGB
 90
-16777216
102
RTVSPost2010PropOp51
 70
     0
102
RTVSPost2010Prop52
140
1.0
102
RTVSPost2010PropOp52
 70
     0
102
RTVSPost2010Prop53
 90
        2
102
RTVSPost2010PropOp53
 70
     1
102
RTVSPost2010Prop54
  1
strokes_ogs.tif
102
RTVSPost2010PropOp54
 70
     1
102
RTVSPost2010Prop55
280
     0
102
RTVSPost2010PropOp55
 70
     1
102
RTVSPost2010Prop56
140
1.0
102
RTVSPost2010PropOp56
 70
     1
102
RTVSPost2010Prop57
140
1.0
102
RTVSPost2010PropOp57
 70
     1
  0
XRECORD
  5
42F
102
{ACAD_REACTORS
330
42E
102
}
330
42E
100
AcDbXrecord
280
     1
102
RTVSPropertyOp0
 70
     1
102
RTVSPropertyOp1
 70
     1
102
RTVSPropertyOp2
 70
     1
102
RTVSPropertyOp3
 70
     1
102
RTVSPropertyOp4
 70
     1
102
RTVSPropertyOp5
 70
     1
102
RTVSPropertyOp6
 70
     1
102
RTVSPropertyOp7
 70
     1
102
RTVSPropertyOp8
 70
     1
102
RTVSPropertyOp9
 70
     1
102
RTVSPropertyOp10
 70
     1
102
RTVSPropertyOp11
 70
     1
102
RTVSPropertyOp12
 70
     1
102
RTVSPropertyOp13
 70
     1
102
RTVSPropertyOp14
 70
     1
102
RTVSPropertyOp15
 70
     1
102
RTVSPropertyOp16
 70
     1
102
RTVSPropertyOp17
 70
     1
102
RTVSPropertyOp18
 70
     1
102
RTVSPropertyOp19
 70
     1
102
RTVSPropertyOp20
 70
     1
102
RTVSPropertyOp21
 70
     1
102
RTVSPropertyOp22
 70
     1
102
RTVSPropertyOp23
 70
     1
102
RTVSPropertyOp24
 70
     1
102
RTVSPropertyOp25
 70
     1
102
RTVSPropertyOp26
 70
     1
102
RTVSPropertyOp27
 70
     1
102
RTVSPropertyOp28
 70
     1
102
RTVSPropertyOp29
 70
     1
102
RTVSPropertyOp30
 70
     1
102
RTVSPropertyOp31
 70
     1
102
RTVSPropertyOp32
 70
     1
102
RTVSPropertyOp33
 70
     1
102
RTVSPropertyOp34
 70
     1
102
RTVSPropertyOp35
 70
     1
102
RTVSPropertyOp36
 70
     1
102
RTVSPropertyOp37
 70
     1
102
RTVSPropertyOp38
 70
     1
102
RTVSPropertyOp39
 70
     1
102
RTVSPropertyOp40
 70
     1
102
RTVSPropertyOp41
 70
     1
102
RTVSPropertyOp42
 70
     1
102
RTVSPropertyOp43
 70
     1
102
RTVSPropertyOp44
 70
     1
102
RTVSPropertyOp45
 70
     1
102
RTVSPropertyOp46
 70
     1
102
RTVSPropertyOp47
 70
     1
102
RTVSPropertyOp48
 70
     1
102
RTVSPropertyOp49
 70
     1
102
RTVSPropertyOp50
 70
     1
102
RTVSPropertyOp51
 70
     0
102
RTVSPropertyOp52
 70
     0
102
RTVSPropertyOp53
 70
     1
102
RTVSPropertyOp54
 70
     1
102
RTVSPropertyOp55
 70
     1
102
RTVSPropertyOp56
 70
     1
102
RTVSPropertyOp57
 70
     1
102
RTVSPost2010Prop28
280
     0
102
RTVSPost2010PropOp28
 70
     1
102
RTVSPost2010Prop29
280
     1
102
RTVSPost2010PropOp29
 70
     1
102
RTVSPost2010Prop30
280
     1
102
RTVSPost2010PropOp30
 70
     1
102
RTVSPost2010Prop31
280
     0
102
RTVSPost2010PropOp31
 70
     1
102
RTVSPost2010Prop32
280
     0
102
RTVSPost2010PropOp32
 70
     1
102
RTVSPost2010Prop33
280
     0
102
RTVSPost2010PropOp33
 70
     1
102
RTVSPost2010Prop34
280
     0
102
RTVSPost2010PropOp34
 70
     1
102
RTVSPost2010Prop35
280
     0
102
RTVSPost2010PropOp35
 70
     1
102
RTVSPost2010Prop36
280
     0
102
RTVSPost2010PropOp36
 70
     1
102
RTVSPost2010Prop37
 90
       50
102
RTVSPost2010PropOp37
 70
     1
102
RTVSPost2010Prop38
140
0.0
102
RTVSPost2010PropOp38
 70
     1
102
RTVSPost2010Prop39
140
1.0
102
RTVSPost2010PropOp39
 70
     1
102
RTVSPost2010Prop40
 90
        0
102
RTVSPost2010PropOp40
 70
     1
102
RTVSPost2010Prop41ColorIndex
 90
       18
102
RTVSPost2010Prop41ColorRGB
 90
        0
102
RTVSPost2010PropOp41
 70
     1
102
RTVSPost2010Prop42
 90
       50
102
RTVSPost2010PropOp42
 70
     1
102
RTVSPost2010Prop43
 90
        3
102
RTVSPost2010PropOp43
 70
     1
102
RTVSPost2010Prop44ColorIndex
 90
        5
102
RTVSPost2010Prop44ColorRGB
 90
      255
102
RTVSPost2010PropOp44
 70
     1
102
RTVSPost2010Prop45
280
     0
102
RTVSPost2010PropOp45
 70
     1
102
RTVSPost2010Prop46
 90
       50
102
RTVSPost2010PropOp46
 70
     1
102
RTVSPost2010Prop47
 90
       50
102
RTVSPost2010PropOp47
 70
     1
102
RTVSPost2010Prop48
 90
       50
102
RTVSPost2010PropOp48
 70
     1
102
RTVSPost2010Prop49
280
     0
102
RTVSPost2010PropOp49
 70
     1
102
RTVSPost2010Prop50
 90
       50
102
RTVSPost2010PropOp50
 70
     1
102
RTVSPost2010Prop51ColorIndex
 90
      256
102
RTVSPost2010Prop51ColorRGB
 90
-16777216
102
RTVSPost2010PropOp51
 70
     0
102
RTVSPost2010Prop52
140
1.0
102
RTVSPost2010PropOp52
 70
     0
102
RTVSPost2010Prop53
 90
        2
102
RTVSPost2010PropOp53
 70
     1
102
RTVSPost2010Prop54
  1
strokes_ogs.tif
102
RTVSPost2010PropOp54
 70
     1
102
RTVSPost2010Prop55
280
     0
102
RTVSPost2010PropOp55
 70
     1
102
RTVSPost2010Prop56
140
1.0
102
RTVSPost2010PropOp56
 70
     1
102
RTVSPost2010Prop57
140
1.0
102
RTVSPost2010PropOp57
 70
     1
  0
XRECORD
  5
421
102
{ACAD_REACTORS
330
420
102
}
330
420
100
AcDbXrecord
280
     1
102
RTVSPropertyOp0
 70
     1
102
RTVSPropertyOp1
 70
     1
102
RTVSPropertyOp2
 70
     1
102
RTVSPropertyOp3
 70
     1
102
RTVSPropertyOp4
 70
     1
102
RTVSPropertyOp5
 70
     1
102
RTVSPropertyOp6
 70
     1
102
RTVSPropertyOp7
 70
     1
102
RTVSPropertyOp8
 70
     1
102
RTVSPropertyOp9
 70
     1
102
RTVSPropertyOp10
 70
     1
102
RTVSPropertyOp11
 70
     1
102
RTVSPropertyOp12
 70
     1
102
RTVSPropertyOp13
 70
     1
102
RTVSPropertyOp14
 70
     1
102
RTVSPropertyOp15
 70
     1
102
RTVSPropertyOp16
 70
     1
102
RTVSPropertyOp17
 70
     1
102
RTVSPropertyOp18
 70
     1
102
RTVSPropertyOp19
 70
     1
102
RTVSPropertyOp20
 70
     1
102
RTVSPropertyOp21
 70
     1
102
RTVSPropertyOp22
 70
     1
102
RTVSPropertyOp23
 70
     1
102
RTVSPropertyOp24
 70
     1
102
RTVSPropertyOp25
 70
     1
102
RTVSPropertyOp26
 70
     1
102
RTVSPropertyOp27
 70
     1
102
RTVSPropertyOp28
 70
     1
102
RTVSPropertyOp29
 70
     1
102
RTVSPropertyOp30
 70
     1
102
RTVSPropertyOp31
 70
     1
102
RTVSPropertyOp32
 70
     1
102
RTVSPropertyOp33
 70
     1
102
RTVSPropertyOp34
 70
     1
102
RTVSPropertyOp35
 70
     1
102
RTVSPropertyOp36
 70
     1
102
RTVSPropertyOp37
 70
     1
102
RTVSPropertyOp38
 70
     1
102
RTVSPropertyOp39
 70
     1
102
RTVSPropertyOp40
 70
     1
102
RTVSPropertyOp41
 70
     1
102
RTVSPropertyOp42
 70
     1
102
RTVSPropertyOp43
 70
     1
102
RTVSPropertyOp44
 70
     1
102
RTVSPropertyOp45
 70
     1
102
RTVSPropertyOp46
 70
     1
102
RTVSPropertyOp47
 70
     1
102
RTVSPropertyOp48
 70
     1
102
RTVSPropertyOp49
 70
     1
102
RTVSPropertyOp50
 70
     1
102
RTVSPropertyOp51
 70
     0
102
RTVSPropertyOp52
 70
     0
102
RTVSPropertyOp53
 70
     1
102
RTVSPropertyOp54
 70
     1
102
RTVSPropertyOp55
 70
     1
102
RTVSPropertyOp56
 70
     1
102
RTVSPropertyOp57
 70
     1
102
RTVSPost2010Prop28
280
     0
102
RTVSPost2010PropOp28
 70
     1
102
RTVSPost2010Prop29
280
     1
102
RTVSPost2010PropOp29
 70
     1
102
RTVSPost2010Prop30
280
     1
102
RTVSPost2010PropOp30
 70
     1
102
RTVSPost2010Prop31
280
     0
102
RTVSPost2010PropOp31
 70
     1
102
RTVSPost2010Prop32
280
     0
102
RTVSPost2010PropOp32
 70
     1
102
RTVSPost2010Prop33
280
     0
102
RTVSPost2010PropOp33
 70
     1
102
RTVSPost2010Prop34
280
     0
102
RTVSPost2010PropOp34
 70
     1
102
RTVSPost2010Prop35
280
     0
102
RTVSPost2010PropOp35
 70
     1
102
RTVSPost2010Prop36
280
     0
102
RTVSPost2010PropOp36
 70
     1
102
RTVSPost2010Prop37
 90
       50
102
RTVSPost2010PropOp37
 70
     1
102
RTVSPost2010Prop38
140
0.0
102
RTVSPost2010PropOp38
 70
     1
102
RTVSPost2010Prop39
140
1.0
102
RTVSPost2010PropOp39
 70
     1
102
RTVSPost2010Prop40
 90
        0
102
RTVSPost2010PropOp40
 70
     1
102
RTVSPost2010Prop41ColorIndex
 90
       18
102
RTVSPost2010Prop41ColorRGB
 90
        0
102
RTVSPost2010PropOp41
 70
     1
102
RTVSPost2010Prop42
 90
       50
102
RTVSPost2010PropOp42
 70
     1
102
RTVSPost2010Prop43
 90
        3
102
RTVSPost2010PropOp43
 70
     1
102
RTVSPost2010Prop44ColorIndex
 90
        5
102
RTVSPost2010Prop44ColorRGB
 90
      255
102
RTVSPost2010PropOp44
 70
     1
102
RTVSPost2010Prop45
280
     0
102
RTVSPost2010PropOp45
 70
     1
102
RTVSPost2010Prop46
 90
       50
102
RTVSPost2010PropOp46
 70
     1
102
RTVSPost2010Prop47
 90
       50
102
RTVSPost2010PropOp47
 70
     1
102
RTVSPost2010Prop48
 90
       50
102
RTVSPost2010PropOp48
 70
     1
102
RTVSPost2010Prop49
280
     0
102
RTVSPost2010PropOp49
 70
     1
102
RTVSPost2010Prop50
 90
       50
102
RTVSPost2010PropOp50
 70
     1
102
RTVSPost2010Prop51ColorIndex
 90
      256
102
RTVSPost2010Prop51ColorRGB
 90
-16777216
102
RTVSPost2010PropOp51
 70
     0
102
RTVSPost2010Prop52
140
1.0
102
RTVSPost2010PropOp52
 70
     0
102
RTVSPost2010Prop53
 90
        2
102
RTVSPost2010PropOp53
 70
     1
102
RTVSPost2010Prop54
  1
strokes_ogs.tif
102
RTVSPost2010PropOp54
 70
     1
102
RTVSPost2010Prop55
280
     0
102
RTVSPost2010PropOp55
 70
     1
102
RTVSPost2010Prop56
140
1.0
102
RTVSPost2010PropOp56
 70
     1
102
RTVSPost2010Prop57
140
1.0
102
RTVSPost2010PropOp57
 70
     1
  0
XRECORD
  5
441
102
{ACAD_REACTORS
330
440
102
}
330
440
100
AcDbXrecord
280
     1
102
RTVSPropertyOp0
 70
     1
102
RTVSPropertyOp1
 70
     1
102
RTVSPropertyOp2
 70
     1
102
RTVSPropertyOp3
 70
     1
102
RTVSPropertyOp4
 70
     1
102
RTVSPropertyOp5
 70
     1
102
RTVSPropertyOp6
 70
     1
102
RTVSPropertyOp7
 70
     1
102
RTVSPropertyOp8
 70
     1
102
RTVSPropertyOp9
 70
     1
102
RTVSPropertyOp10
 70
     1
102
RTVSPropertyOp11
 70
     1
102
RTVSPropertyOp12
 70
     1
102
RTVSPropertyOp13
 70
     1
102
RTVSPropertyOp14
 70
     1
102
RTVSPropertyOp15
 70
     1
102
RTVSPropertyOp16
 70
     1
102
RTVSPropertyOp17
 70
     1
102
RTVSPropertyOp18
 70
     1
102
RTVSPropertyOp19
 70
     1
102
RTVSPropertyOp20
 70
     1
102
RTVSPropertyOp21
 70
     1
102
RTVSPropertyOp22
 70
     1
102
RTVSPropertyOp23
 70
     1
102
RTVSPropertyOp24
 70
     1
102
RTVSPropertyOp25
 70
     1
102
RTVSPropertyOp26
 70
     1
102
RTVSPropertyOp27
 70
     1
102
RTVSPropertyOp28
 70
     1
102
RTVSPropertyOp29
 70
     1
102
RTVSPropertyOp30
 70
     1
102
RTVSPropertyOp31
 70
     1
102
RTVSPropertyOp32
 70
     1
102
RTVSPropertyOp33
 70
     1
102
RTVSPropertyOp34
 70
     1
102
RTVSPropertyOp35
 70
     1
102
RTVSPropertyOp36
 70
     1
102
RTVSPropertyOp37
 70
     1
102
RTVSPropertyOp38
 70
     1
102
RTVSPropertyOp39
 70
     1
102
RTVSPropertyOp40
 70
     1
102
RTVSPropertyOp41
 70
     1
102
RTVSPropertyOp42
 70
     1
102
RTVSPropertyOp43
 70
     1
102
RTVSPropertyOp44
 70
     1
102
RTVSPropertyOp45
 70
     1
102
RTVSPropertyOp46
 70
     1
102
RTVSPropertyOp47
 70
     1
102
RTVSPropertyOp48
 70
     1
102
RTVSPropertyOp49
 70
     1
102
RTVSPropertyOp50
 70
     1
102
RTVSPropertyOp51
 70
     0
102
RTVSPropertyOp52
 70
     0
102
RTVSPropertyOp53
 70
     1
102
RTVSPropertyOp54
 70
     1
102
RTVSPropertyOp55
 70
     1
102
RTVSPropertyOp56
 70
     1
102
RTVSPropertyOp57
 70
     1
102
RTVSPost2010Prop28
280
     0
102
RTVSPost2010PropOp28
 70
     1
102
RTVSPost2010Prop29
280
     1
102
RTVSPost2010PropOp29
 70
     1
102
RTVSPost2010Prop30
280
     1
102
RTVSPost2010PropOp30
 70
     1
102
RTVSPost2010Prop31
280
     0
102
RTVSPost2010PropOp31
 70
     1
102
RTVSPost2010Prop32
280
     0
102
RTVSPost2010PropOp32
 70
     1
102
RTVSPost2010Prop33
280
     0
102
RTVSPost2010PropOp33
 70
     1
102
RTVSPost2010Prop34
280
     0
102
RTVSPost2010PropOp34
 70
     1
102
RTVSPost2010Prop35
280
     0
102
RTVSPost2010PropOp35
 70
     1
102
RTVSPost2010Prop36
280
     0
102
RTVSPost2010PropOp36
 70
     1
102
RTVSPost2010Prop37
 90
       50
102
RTVSPost2010PropOp37
 70
     1
102
RTVSPost2010Prop38
140
0.0
102
RTVSPost2010PropOp38
 70
     1
102
RTVSPost2010Prop39
140
1.0
102
RTVSPost2010PropOp39
 70
     1
102
RTVSPost2010Prop40
 90
        0
102
RTVSPost2010PropOp40
 70
     1
102
RTVSPost2010Prop41ColorIndex
 90
       18
102
RTVSPost2010Prop41ColorRGB
 90
        0
102
RTVSPost2010PropOp41
 70
     1
102
RTVSPost2010Prop42
 90
       50
102
RTVSPost2010PropOp42
 70
     1
102
RTVSPost2010Prop43
 90
        3
102
RTVSPost2010PropOp43
 70
     1
102
RTVSPost2010Prop44ColorIndex
 90
        5
102
RTVSPost2010Prop44ColorRGB
 90
      255
102
RTVSPost2010PropOp44
 70
     1
102
RTVSPost2010Prop45
280
     0
102
RTVSPost2010PropOp45
 70
     1
102
RTVSPost2010Prop46
 90
       50
102
RTVSPost2010PropOp46
 70
     1
102
RTVSPost2010Prop47
 90
       50
102
RTVSPost2010PropOp47
 70
     1
102
RTVSPost2010Prop48
 90
       50
102
RTVSPost2010PropOp48
 70
     1
102
RTVSPost2010Prop49
280
     0
102
RTVSPost2010PropOp49
 70
     1
102
RTVSPost2010Prop50
 90
       50
102
RTVSPost2010PropOp50
 70
     1
102
RTVSPost2010Prop51ColorIndex
 90
      256
102
RTVSPost2010Prop51ColorRGB
 90
-16777216
102
RTVSPost2010PropOp51
 70
     0
102
RTVSPost2010Prop52
140
1.0
102
RTVSPost2010PropOp52
 70
     0
102
RTVSPost2010Prop53
 90
        2
102
RTVSPost2010PropOp53
 70
     1
102
RTVSPost2010Prop54
  1
strokes_ogs.tif
102
RTVSPost2010PropOp54
 70
     1
102
RTVSPost2010Prop55
280
     0
102
RTVSPost2010PropOp55
 70
     1
102
RTVSPost2010Prop56
140
1.0
102
RTVSPost2010PropOp56
 70
     1
102
RTVSPost2010Prop57
140
1.0
102
RTVSPost2010PropOp57
 70
     1
  0
ENDSEC
  0
EOF
